Космический охотник: Приключения в запретной зоне / Spacehunter: Adventures in the Forbidden Zone (Лэмонт Джонсон / Lamont Johnson) [1983, Канада, США, фантастика, приключения, DVDRip-AVC] MVO + MVO (ТВ-3) + AVO (Живов) + Sub Rus + Original Eng

Reply to topic
DL-List and Torrent activity
Size:  2.21 GB   |    Registered:  4 years 4 months   |    Completed:  0 times

Seeder not seen: Never

 
   
 
 
Author Message

star21 ®

Gender: Female

Longevity: 4 years 4 months

Posts: 551945

Location: Екатеринбург

Post 30-Nov-2015 05:50

[Quote]

Космический охотник: Приключения в запретной зоне / Spacehunter: Adventures in the Forbidden Zone
Страна: Канада, США
Жанр: фантастика, приключения
Год выпуска: 1983
Продолжительность: 01:29:51
-
Перевод 1: Профессиональный (многоголосый закадровый)
Перевод 2: Профессиональный (многоголосый закадровый) ТВ-3
Перевод 3: Авторский (одноголосый закадровый) Юрий Живов
Cубтитры: русские (от Eazin)
Оригинальная аудиодорожка: английский
-
Режиссер: Лэмонт Джонсон / Lamont Johnson
В ролях: Питер Штраусс, Молли Рингуолд, Эрни Хадсон, Андреа Марковиччи, Майкл Айронсайд, Бисон Кэрролл, Хрант Альянак, Дебора Прэтт, Aleisa Shirley, Кали Тимминс
-
Описание: Отдаленное будущее. Пассажирский космолайнер терпит крушение. Погибают все, кроме трех девушек, которые за минуту до взрыва успевают покинуть обреченный корабль на спасательном челноке. Следуя заложенной в него программе, челнок самостоятельно подыскивает планету для высадки. Этой планетой становится Терра-11, атмосфера которой схожа с земной. Из сводки новостей космический охотник Вулф узнает о крушении корабля и о высадке выживших пассажирок. В результате анализа запрошенной информации оказывается, что в течение долгих лет её население было охвачено чумой. Медицинская экспедиция, отправленная на планету, не смогла справиться с разбушевавшейся болезнью и Терре-11 был присвоен статус запретной зоны. Вулф сомневается, стоит ли рисковать головой и лететь на зачумленную планету, но за спасение девушек назначено огромное вознаграждение…
-
Доп. информация:[imdb]http://www.imdb.com/title/tt0086346[/imdb]
-
Сэмпл: http://sendfile.su/1173473
-
Качество видео: DVDRip-AVC (DVD5/rjhlb777)
Формат видео: MKV
Видео: 704x384 (1.85:1), 23.976 fps, AVC, ~2 500 Kbps, 0.386 bits/pixel
Аудио 1: 48 kHz, AC3 Dolby Digital, 2/0 (L,R) ch, ~192 kbps MVO
Аудио 2: 48 kHz, AC3 Dolby Digital, 2/0 (L,R) ch, ~192 kbps MVO (ТВ-3)
Аудио 3: 48 kHz, AC3 Dolby Digital, 3/1 (L,C,R,l) ch, ~448 kbps Eng
Аудио 4: 48 kHz, AC3 Dolby Digital, 2/0 (L,R) ch, ~192 kbps AVO (Юрий Живов) Отдельно
Формат субтитров: softsub (SRT)

MediaInfo

General
Unique ID : 190083424734270633072957194996951460222 (0x8F00BC680DDF5065AA9123EAC9D2A97E)
Complete name : C:\Users\ALEX\Downloads\Фильмы\Spacehunter.Adventures in the Forbidden Zone.1983.DUALRUS.ENG.DVDRip-AVC.x264.AC3.Sub\Spacehunter.Adventures in the Forbidden Zone.1983.DUALRUS.ENG.DVDRip-AVC.x264.AC3.Sub.mkv
Format : Matroska
Format version : Version 4 / Version 2
File size : 2.09 GiB
Duration : 1h 29mn
Overall bit rate : 3 333 Kbps
Encoded date : UTC 2015-11-13 15:38:04
Writing application : mkvmerge v8.5.2 ('Crosses') 64bit
Writing library : libebml v1.3.3 + libmatroska v1.4.4
DURATION : 01:26:09.300000000
NUMBER_OF_FRAMES : 694
NUMBER_OF_BYTES : 44444
_STATISTICS_WRITING_APP : mkvmerge v8.5.2 ('Crosses') 64bit
_STATISTICS_WRITING_DATE_UTC : 2015-11-13 15:38:04
_STATISTICS_TAGS : BPS DURATION NUMBER_OF_FRAMES NUMBER_OF_BYTES
Video
ID : 1
Format : AVC
Format/Info : Advanced Video Codec
Format profile : High@L4.1
Format settings, CABAC : Yes
Format settings, ReFrames : 9 frames
Codec ID : V_MPEG4/ISO/AVC
Duration : 1h 29mn
Bit rate : 2 500 Kbps
Width : 704 pixels
Height : 384 pixels
Display aspect ratio : 1.85:1
Frame rate mode : Constant
Frame rate : 23.976 fps
Color space : YUV
Chroma subsampling : 4:2:0
Bit depth : 8 bits
Scan type : Progressive
Bits/(Pixel*Frame) : 0.386
Stream size : 1.53 GiB (73%)
Writing library : x264 core 146 r2538 121396c
Encoding settings : cabac=1 / ref=9 / deblock=1:3:2 / analyse=0x3:0x133 / me=umh / subme=10 / psy=1 / psy_rd=1.00:0.10 / mixed_ref=1 / me_range=32 / chroma_me=1 / trellis=2 / 8x8dct=1 / cqm=0 / deadzone=21,11 / fast_pskip=0 / chroma_qp_offset=-3 / threads=6 / lookahead_threads=1 / sliced_threads=0 / nr=0 / decimate=1 / interlaced=0 / bluray_compat=0 / constrained_intra=0 / bframes=12 / b_pyramid=2 / b_adapt=2 / b_bias=0 / direct=3 / weightb=1 / open_gop=0 / weightp=2 / keyint=240 / keyint_min=22 / scenecut=40 / intra_refresh=0 / rc_lookahead=40 / rc=2pass / mbtree=1 / bitrate=2500 / ratetol=1.0 / qcomp=0.60 / qpmin=10 / qpmax=51 / qpstep=4 / cplxblur=20.0 / qblur=0.5 / ip_ratio=1.40 / aq=1:1.00
Language : English
Default : Yes
Forced : No
Audio #1
ID : 2
Format : AC-3
Format/Info : Audio Coding 3
Mode extension : CM (complete main)
Format settings, Endianness : Big
Codec ID : A_AC3
Duration : 1h 29mn
Bit rate mode : Constant
Bit rate : 192 Kbps
Channel(s) : 2 channels
Channel positions : Front: L R
Sampling rate : 48.0 KHz
Bit depth : 16 bits
Compression mode : Lossy
Stream size : 123 MiB (6%)
Title : MVO
Language : Russian
Default : Yes
Forced : No
Audio #2
ID : 3
Format : AC-3
Format/Info : Audio Coding 3
Mode extension : CM (complete main)
Format settings, Endianness : Big
Codec ID : A_AC3
Duration : 1h 29mn
Bit rate mode : Constant
Bit rate : 192 Kbps
Channel(s) : 2 channels
Channel positions : Front: L R
Sampling rate : 48.0 KHz
Bit depth : 16 bits
Compression mode : Lossy
Stream size : 123 MiB (6%)
Title : MVO (ТВ-3)
Language : Russian
Default : No
Forced : No
Audio #3
ID : 4
Format : AC-3
Format/Info : Audio Coding 3
Mode extension : CM (complete main)
Format settings, Endianness : Big
Codec ID : A_AC3
Duration : 1h 29mn
Bit rate mode : Constant
Bit rate : 448 Kbps
Channel(s) : 4 channels
Channel positions : Front: L C R, Back: C
Sampling rate : 48.0 KHz
Bit depth : 16 bits
Compression mode : Lossy
Stream size : 288 MiB (13%)
Title : Original
Language : English
Default : No
Forced : No
Text
ID : 5
Format : UTF-8
Codec ID : S_TEXT/UTF8
Codec ID/Info : UTF-8 Plain Text
Title : Full (Eazin)
Language : Russian
Default : No
Forced : No

Скриншоты

To download the content you need:
1. Download and install torrent client [for Windows] or for mobile system
2. Click on [Download]
Attention.
If the test YOU are NOT a ROBOT - does not work, then You are using an outdated browser.
Install the current browser and click on [Download]

Do not work with Yandex browser. Uploading files to them is erroneous.
Security: torrent client is allowed by Kaspersky.

[en.asmlocator.ru].t4083.torrent 
Torrent: Registered [ 2015-11-30 05:45 ] · C6A673B66550F6DDAE0FC2CD9ECC69996909AB5F

Download .torrent

Download

12 KB

Status: checked
Completed: 0 times
Size: 2.21 GB
terms.php
[Profile] [PM]
Display posts:    
Reply to topic

Current time is: 05-Apr 03:26

All times are UTC ± 0



You cannot post new topics in this forum
You cannot reply to topics in this forum
You cannot edit your posts in this forum
You cannot delete your posts in this forum
You cannot vote in polls in this forum
You cannot attach files in this forum
You can download files in this forum
Верим фактам, а не вранью Путина! Факт, что Правительство ведёт Россию к истреблению.
Так как численность населения падает, даже не смотря на приток эмигрантов!
Русская нация вымирает и вырождается, смешиваясь с эмигрантами!
Факт, что военных и граждан предприятий заставляют голосовать за партию Единая Россия и Путина
ПОД СТРАХОМ УВОЛЬНЕНИЯ!
Нам не нужно Правительство, блокирующее личную жизнь, интернет, нарушающее сохранность данных.
Все эти действия финансируются за счёт народа!