Детские игры / Школа страха / School of Fear / Gioko, Il / Alta tensione - Il gioco (Ламберто Бава / Lamberto Bava) [1989, Италия, Триллер, DVDRip] AVO С.Козлов

Reply to topic
DL-List and Torrent activity
Size:  1.45 GB   |    Registered:  4 years   |    Completed:  1 time

Seeder not seen: 1 month 25 days

 
   
 
 
Author Message

star21 ®

Gender: Female

Longevity: 4 years 1 month

Posts: 551946

Location: Екатеринбург

Post 30-Nov-2015 05:50

[Quote]

Детские игры / Школа страха / School of Fear / Gioko, Il / Alta tensione - Il gioco
Страна: Италия
Жанр: Триллер
Год выпуска: 1989
Продолжительность: 1:34:53
Перевод: Авторский (одноголосый закадровый) С. Козлов
Cубтитры: нет
Режиссер: Ламберто Бава / Lamberto Bava
В ролях: Дария Николоди, Alessandra Acciai, Жан Хеберт, Viola Simoncioni, Giuseppe Stefano De Sando, Morena Turchi, Фабио Йеллини, Valeria Milillo, Giuseppe Pianviti, Luca Fagioli, Piero Cucchi
Описание: Молодая учительница пытается разузнать все возможное об «игре», в которую играют ее ученики. Выясняется, что правила игры включают изнасилование и убийство.Короче фильм о том как развлекаются богатенькие перечитавшие Шопенгауэра и Кастанеду детишки с обилием свободного времени....
Доп. информация: Рип от Lucian666
Сэмпл: https://www.sendspace.com/file/sqtt23
Качество видео: DVDRip
Формат видео: AVI
Видео: XviD MPEG-4 , 704x528 (1.33:1) , 25 fps , 1 990 Kbps
Аудио: AC3 , 48 kHz , 192.00 kbps avg , 2/0 (L,R) ch

MediaInfo

Complete name Школа страха 1989.avi
Format : AVI
Format/Info : Audio Video Interleave
File size : 1.45 GiB
Duration : 1h 34mn
Overall bit rate : 2 192 Kbps
Writing application : VirtualDubMod 1.5.10.3 | www.virtualdub-fr.org || (build 2550/release)
Writing library : VirtualDubMod build 2550/release
Video
ID : 0
Format : MPEG-4 Visual
Format profile : Advanced Simple@L5
Format settings, BVOP : 1
Format settings, QPel : No
Format settings, GMC : No warppoints
Format settings, Matrix : Default (MPEG)
Codec ID : XVID
Codec ID/Hint : XviD
Duration : 1h 34mn
Bit rate : 1 990 Kbps
Width : 704 pixels
Height : 528 pixels
Display aspect ratio : 4:3
Frame rate : 25.000 fps
Color space : YUV
Chroma subsampling : 4:2:0
Bit depth : 8 bits
Scan type : Progressive
Compression mode : Lossy
Bits/(Pixel*Frame) : 0.214
Stream size : 1.32 GiB (91%)
Writing library : XviD 1.2.1 (UTC 2008-12-04)
Audio
ID : 1
Format : AC-3
Format/Info : Audio Coding 3
Mode extension : CM (complete main)
Format settings, Endianness : Big
Codec ID : 2000
Duration : 1h 34mn
Bit rate mode : Constant
Bit rate : 192 Kbps
Channel(s) : 2 channels
Channel positions : Front: L R
Sampling rate : 48.0 KHz
Compression mode : Lossy
Stream size : 130 MiB (9%)
Alignment : Split accross interleaves
Interleave, duration : 40 ms (1.00 video frame)
Interleave, preload duratio : 500 ms

Скриншоты

To download the content you need:
1. Download and install torrent client [for Windows] or for mobile system
2. Click on [Download]
Attention.
If the test YOU are NOT a ROBOT - does not work, then You are using an outdated browser.
Install the current browser and click on [Download]
Security: torrent client is allowed by Kaspersky.

[en.asmlocator.ru].t4081.torrent 
Torrent: Registered [ 2015-11-30 05:45 ] · 220B4BB213597CB2EF8D1A54A89B3EE5265DFBE7

Download .torrent

Download

15 KB

Status: checked
Completed: 1 times
Size: 1.45 GB
terms.php
[Profile] [PM]
Display posts:    
Reply to topic

Current time is: 14-Dec 01:08

All times are UTC ± 0



You cannot post new topics in this forum
You cannot reply to topics in this forum
You cannot edit your posts in this forum
You cannot delete your posts in this forum
You cannot vote in polls in this forum
You cannot attach files in this forum
You can download files in this forum
Верим фактам, а не вранью Путина! Факт, что Правительство ведёт Россию к истреблению.
Так как численность населения падает, даже не смотря на приток эмигрантов!
Русская нация вымирает и вырождается, смешиваясь с эмигрантами!
Факт, что военных и граждан предприятий заставляют голосовать за партию Единая Россия и Путина
ПОД СТРАХОМ УВОЛЬНЕНИЯ!
Нам не нужно Правительство, блокирующее личную жизнь, интернет, нарушающее сохранность данных.
Все эти действия финансируются за счёт народа!