Вой / The Howling (Джо Данте / Joe Dante) [1981, США, ужасы, детектив, DVDRip] [FullScreen] AVO (Алексей Михалев)

Reply to topic
DL-List and Torrent activity
Size:  1.46 GB   |    Registered:  4 years   |    Completed:  0 times

Seeder not seen: 1 year 8 months

 
   
 
 
Author Message

star21 ®

Gender: Female

Longevity: 4 years 1 month

Posts: 551946

Location: Екатеринбург

Post 30-Nov-2015 05:50

[Quote]

Вой / The Howling
[FullScreen]
Страна: США
Жанр: ужасы, детектив
Год выпуска: 1981
Продолжительность: 01:30:41
Перевод: Авторский (одноголосый закадровый) Алексей Михалев
Cубтитры: нет
Режиссер: Джо Данте / Joe Dante
В ролях: Ди Уоллес-Стоун (Karen White), Патрик Макни (Dr. George Waggner), Деннис Дуган (Chris), Кристофер Стоун (R. William «Bill» Neill), Белинда Баласки (Terry Fisher), Кевин МакКарти (Fred Francis), Джон Кэрредин (Erle Kenton), Слим Пикенс (Sam Newfield), Элизабет Брукс (Marsha Quist), Роберт Пикардо (Eddie Quist), Марджи Имперт (Donna), Ноубл Уиллингэм (Charlie Barton)
Описание: Совершаются многочисленные убийства женщин. Маньяк известен - это некий Эдди, который просит о встрече с ним симпатичную журналистку Карен Уайт. Они встречаются, но при виде своего внезапно трансформирующегося в ужасного монстра собеседника Карен пугается и начинает звать на помощь. Эдди убивает подоспевшая полиция. После перенесенного нервного срыва Карен соглашается пройти лечение в клинике доктора Ваггнера. Но постепенно Карен начинает замечать, что вокруг происходят какие-то странные вещи.
Доп. информация: За исходник спасибо ostrvskijjp
Релиз
Сэмпл: https://yadi.sk/i/F_HNG63BkRaGE
Качество видео: DVDRip
Формат видео: AVI
Видео: 640x480 (1.33:1), 23.976 fps, XviD build 50 ~1849 kbps avg, 0.25 bit/pixel
Аудио: 48 kHz, AC3 Dolby Digital, 3/2 (L,C,R,l,r) + LFE ch, ~448 kbps

MediaInfo

Вой - The Howling [by Edich2].avi
Format : AVI
Format/Info : Audio Video Interleave
File size : 1.46 GiB
Duration : 1h 30mn
Overall bit rate : 2 311 Kbps
Movie name : Вой - The Howling [by Edich2]
Director : by Edich2
Writing application : VirtualDubMod 1.5.10.3 | www.virtualdub-fr.org || (build 2550/release)
Comment : RuTracker.org
Video
ID : 0
Format : MPEG-4 Visual
Format profile : Advanced Simple@L5
Format settings, BVOP : 1
Format settings, QPel : No
Format settings, GMC : No warppoints
Format settings, Matrix : Custom
Codec ID : XVID
Codec ID/Hint : XviD
Duration : 1h 30mn
Bit rate : 1 850 Kbps
Width : 640 pixels
Height : 480 pixels
Display aspect ratio : 4:3
Frame rate : 23.976 fps
Color space : YUV
Chroma subsampling : 4:2:0
Bit depth : 8 bits
Scan type : Progressive
Compression mode : Lossy
Bits/(Pixel*Frame) : 0.251
Stream size : 1.17 GiB (80%)
Writing library : XviD 1.2.1 (UTC 2008-12-04)
Audio
ID : 1
Format : AC-3
Format/Info : Audio Coding 3
Mode extension : CM (complete main)
Format settings, Endianness : Big
Codec ID : 2000
Duration : 1h 30mn
Bit rate mode : Constant
Bit rate : 448 Kbps
Channel(s) : 6 channels
Channel positions : Front: L C R, Side: L R, LFE
Sampling rate : 48.0 KHz
Bit depth : 16 bits
Compression mode : Lossy
Stream size : 293 MiB (20%)
Alignment : Split accross interleaves
Interleave, duration : 42 ms (1.00 video frame)
Interleave, preload duration : 500 ms

Скриншоты


To download the content you need:
1. Download and install torrent client [for Windows] or for mobile system
2. Click on [Download]
Attention.
If the test YOU are NOT a ROBOT - does not work, then You are using an outdated browser.
Install the current browser and click on [Download]
Security: torrent client is allowed by Kaspersky.

[en.asmlocator.ru].t4080.torrent 
Torrent: Registered [ 2015-11-30 05:45 ] · FCD8DBEB4C8397C5613A0191AA5903EE7CB3E448

Download .torrent

Download

15 KB

Status: checked
Completed: 0 times
Size: 1.46 GB
terms.php
[Profile] [PM]
Display posts:    
Reply to topic

Current time is: 12-Dec 02:39

All times are UTC ± 0



You cannot post new topics in this forum
You cannot reply to topics in this forum
You cannot edit your posts in this forum
You cannot delete your posts in this forum
You cannot vote in polls in this forum
You cannot attach files in this forum
You can download files in this forum
Верим фактам, а не вранью Путина! Факт, что Правительство ведёт Россию к истреблению.
Так как численность населения падает, даже не смотря на приток эмигрантов!
Русская нация вымирает и вырождается, смешиваясь с эмигрантами!
Факт, что военных и граждан предприятий заставляют голосовать за партию Единая Россия и Путина
ПОД СТРАХОМ УВОЛЬНЕНИЯ!
Нам не нужно Правительство, блокирующее личную жизнь, интернет, нарушающее сохранность данных.
Все эти действия финансируются за счёт народа!