Ловушка для денег / Денежная яма / Долговая яма / Денежный мешок / Прорва / The Money Pit (Ричард Бенджамин / Richard Benjamin) [1986, США, Комедия, VHSRip] [FullScreen] VO

Reply to topic
DL-List and Torrent activity
Size:  1.37 GB   |    Registered:  4 years   |    Completed:  1 time

Seeder not seen: 1 month 21 day

 
   
 
 
Author Message

star21 ®

Gender: Female

Longevity: 4 years 1 month

Posts: 551946

Location: Екатеринбург

Post 30-Nov-2015 05:50

[Quote]

Ловушка для денег / Денежная яма / Долговая яма / Денежный мешок / Прорва / The Money Pit
[FullScreen]
Страна: США
Жанр: Комедия
Год выпуска: 1986
Продолжительность: 01:30:29
Перевод: Одноголосый закадровый
это не "Дохаловоподобный"
Cубтитры: нет
Режиссер: Ричард Бенджамин / Richard Benjamin
В ролях: Том Хэнкс, Шелли Лонг, Александр Годунов, Морин Стейплтон, Джо Мантенья, Филип Боско, Джош Мостел, Яков Смирнофф, Кармине Кариди, Брайан Бэкер.
Описание: 1. Аннотация от alenavova
Комедия продюсера Стивена Спилберга обречена на коммерческий успех. Знаменитые актеры легко и весело разыгрывают сюжет, знакомый (увы!) едва ли не каждой семье среднего достатка. Уолтер и Анна живут в любви, согласии и в квартире первого мужа Анны, дирижера Макса. Макс находится в длительной командировке, но всему на свете бывает конец, даже командировкам. Макс возвращается, и влюбленная парочка оказывается без крыши над головой. Уолтер идет к "золотому ребенку", мальчику-миллионеру Бенни, и с превеликим трудом "выбивает" деньги на покупку дома. И вот - свершилось: Уолтер покупает милое семейное гнездышко... в котором все разваливается - от лестницы до унитаза! Далее сюжет крутится вокруг титанической борьбы с домом. Смех смехом, но под развалинами дома чуть было не погибла любовь!..
2. Том Хэнкс, юрист, и Шелли Лонг, скрипачка, вынуждены съехать с квартиры, принадлежащей бывшему мужу Шелли (Годунов, умерший в 1995 году), так как тот вернулся из Европы. Друг Хэнкса "удружил" ему дом, который по его словам стоил не меньше миллиона. Ребята не хотели его покупать, боялись подвоха, но, в конце концов, купили. А подвох был. Как только они туда въехали, дом начал разваливаться - водопровод не работал, лестница на второй этаж обвалилась, потолок стал сыпаться - короче, дом был весь гнилой. Тогда они начали ремонт, который чуть было не довел их до развода. Мне ремонт трехкомнатной квартиры делал один халтурщик Дима Федоров, большой мастер запудрить мозги, в течение десяти месяцев. Я был готов его убить, покончить жизнь самоубийством, мы с женой чуть не сошли с ума. Короче, мне близка эта тема, решенная в жанре комедии. (Иванов М.)
Доп. информация: Оцифровка VHS (личный архив) и получение VHSRip alenavova
Эксклюзив для rutracker.org. При размещении данного релиза на других сайтах ссылка на автора alenavova обязательна.

Релиз
Сэмпл: https://yadi.sk/i/jmePCGeJkUqtY
Качество видео: VHSRip
Формат видео: AVI
Видео: 704x528 (1.33:1), 25 fps, XviD build 50 ~1960 kbps avg, 0.21 bit/pixel
Аудио: 48 kHz, AC3 Dolby Digital, 2/0 (L,R) ch, ~192 kbps

MediaInfo

Ловушка для денег - The Money Pit (by alenavova).avi
Format : AVI
Format/Info : Audio Video Interleave
File size : 1.37 GiB
Duration : 1h 30mn
Overall bit rate : 2 162 Kbps
Movie name : Ловушка для денег - The Money Pit (by alenavova)
Director : by alenavova
Writing application : VirtualDubMod 1.5.10.3 | www.virtualdub-fr.org || (build 2550/release)
Copyright : Edich2
Comment : RuTracker.org
Video
ID : 0
Format : MPEG-4 Visual
Format profile : Advanced Simple@L5
Format settings, BVOP : 1
Format settings, QPel : No
Format settings, GMC : No warppoints
Format settings, Matrix : Custom
Codec ID : XVID
Codec ID/Hint : XviD
Duration : 1h 30mn
Bit rate : 1 961 Kbps
Width : 704 pixels
Height : 528 pixels
Display aspect ratio : 4:3
Frame rate : 25.000 fps
Color space : YUV
Chroma subsampling : 4:2:0
Bit depth : 8 bits
Scan type : Progressive
Compression mode : Lossy
Bits/(Pixel*Frame) : 0.211
Stream size : 1.24 GiB (91%)
Writing library : XviD 1.2.1 (UTC 2008-12-04)
Audio
ID : 1
Format : AC-3
Format/Info : Audio Coding 3
Mode extension : CM (complete main)
Format settings, Endianness : Big
Codec ID : 2000
Duration : 1h 30mn
Bit rate mode : Constant
Bit rate : 192 Kbps
Channel(s) : 2 channels
Channel positions : Front: L R
Sampling rate : 48.0 KHz
Bit depth : 16 bits
Compression mode : Lossy
Stream size : 124 MiB (9%)
Alignment : Split accross interleaves
Interleave, duration : 40 ms (1.00 video frame)
Interleave, preload duration : 500 ms

Скриншоты


To download the content you need:
1. Download and install torrent client [for Windows] or for mobile system
2. Click on [Download]
Attention.
If the test YOU are NOT a ROBOT - does not work, then You are using an outdated browser.
Install the current browser and click on [Download]
Security: torrent client is allowed by Kaspersky.

[en.asmlocator.ru].t4079.torrent 
Torrent: Registered [ 2015-11-30 05:45 ] · 977E5B5DF6B64961FC2E5D7E66C5E58D81507508

Download .torrent

Download

14 KB

Status: checked
Completed: 1 times
Size: 1.37 GB
terms.php
[Profile] [PM]
Display posts:    
Reply to topic

Current time is: 10-Dec 07:09

All times are UTC ± 0



You cannot post new topics in this forum
You cannot reply to topics in this forum
You cannot edit your posts in this forum
You cannot delete your posts in this forum
You cannot vote in polls in this forum
You cannot attach files in this forum
You can download files in this forum
Верим фактам, а не вранью Путина! Факт, что Правительство ведёт Россию к истреблению.
Так как численность населения падает, даже не смотря на приток эмигрантов!
Русская нация вымирает и вырождается, смешиваясь с эмигрантами!
Факт, что военных и граждан предприятий заставляют голосовать за партию Единая Россия и Путина
ПОД СТРАХОМ УВОЛЬНЕНИЯ!
Нам не нужно Правительство, блокирующее личную жизнь, интернет, нарушающее сохранность данных.
Все эти действия финансируются за счёт народа!