Над законом / Above the Law (Эндрю Дэвис / Andrew Davis) [1988, США, боевик, DVB] [Fullscreen] DVO (НТВ/ТВ3)

Reply to topic
DL-List and Torrent activity
Size:  2.16 GB   |    Registered:  4 years 4 months   |    Completed:  0 times

Seeder not seen: Never

 
   
 
 
Author Message

star21 ®

Gender: Female

Longevity: 4 years 4 months

Posts: 551945

Location: Екатеринбург

Post 30-Nov-2015 05:50

[Quote]

Над законом
Above the Law
Full Screen Страна: США
Жанр: боевик
Год выпуска: 1988
Продолжительность: 01:32:38-Перевод: Профессиональный (двухголосый закадровый) НТВ/ТВ3
Cубтитры: нет
Оригинальная аудиодорожка: нет-Режиссер: Эндрю Дэвис / Andrew Davis
В ролях: Стивен Сигал, Пэм Гриер, Генри Сильва, Шэрон Стоун, Челси Росс, Майкл Рукер, Грегори Алан Уильямс, Дэнни Голдринг, Рон Дин, Даниэль Фаральдо-Описание: Остросюжетный боевик о чикагском полицейском Нико Тоскани, бывшем агенте ЦРУ и ветеране вьетнамской войны. Не желая мириться с произволом, творящемся в рядах спецслужб, Нико проводит ряд расследований и выходит на агентов, сотрудничающих с наркомафией. Он считает своим долгом остановить людей, которые возомнили себя "над законом"-Доп. информация: Full Screen
DVB имеет иное наполнение кадра, чем BD и DVD
Финальные титры ускорены и совмещены с анонсом фильма
-Сэмпл: минута50сек-Качество видео: DVB
Формат видео: MPEG-PS
Видео: MPEG Video, 720x576, 4:3, 25,000 кадров/сек, 3086 Кбит/сек
Аудио: MP2, 48,0 КГц, 192 Кбит/сек, 2 канала (двухголосый НТВ/ТВ3)

Сравнение с BD

6 скринов

MediaInfo

Общее
Полное имя : Над законом-2015.10.11.mpg
Формат : MPEG-PS
Размер файла : 2,16 Гбайт
Продолжительность : 1 ч. 32 м.
Режим общего битрейта : Переменный
Общий поток : 3345 Кбит/сек
Видео
Идентификатор : 224 (0xE0)
Формат : MPEG Video
Версия формата : Version 2
Профиль формата : Main@Main
Параметр BVOP формата : Да
Параметр матрицы формата : Выборочная
Параметр GOP формата : Variable
Структура изображения : Frame
Продолжительность : 1 ч. 32 м.
Вид битрейта : Переменный
Битрейт : 3086 Кбит/сек
Максимальный битрейт : 15,0 Мбит/сек
Ширина : 720 пикселей
Высота : 576 пикселей
Соотношение сторон : 4:3
Частота кадров : 25,000 кадров/сек
Стандарт вещания : PAL
Цветовое пространство : YUV
Субдискретизация насыщенности : 4:2:0
Битовая глубина : 8 бит
Тип развёртки : Чересстрочная
Порядок развёртки : Верхнее поле первое
Метод сжатия : С потерями
Бит/(Пиксели*Кадры) : 0.298
Временной код первого кадра : 00:00:00:00
Оригинал временного кода : Group of pictures header
GOP, открыто/закрыто : Открыто
GOP, открыто/закрыто на первом кадре : Закрыто
Размер потока : 2,00 Гбайт (92%)
Аудио
Идентификатор : 192 (0xC0)
Формат : MPEG Audio
Версия формата : Version 1
Профиль формата : Layer 2
Продолжительность : 1 ч. 32 м.
Вид битрейта : Постоянный
Битрейт : 192 Кбит/сек
Каналы : 2 канала
Частота : 48,0 КГц
Метод сжатия : С потерями
Задержка видео : 17 мс.
Размер потока : 127 Мбайт (6%)

Скриншоты

To download the content you need:
1. Download and install torrent client [for Windows] or for mobile system
2. Click on [Download]
Attention.
If the test YOU are NOT a ROBOT - does not work, then You are using an outdated browser.
Install the current browser and click on [Download]

Do not work with Yandex browser. Uploading files to them is erroneous.
Security: torrent client is allowed by Kaspersky.

[en.asmlocator.ru].t4078.torrent 
Torrent: Registered [ 2015-11-30 05:45 ] · ACA65194211D124F4995492B8287B0D2BA175723

Download .torrent

Download

11 KB

Status: checked
Completed: 0 times
Size: 2.16 GB
terms.php
[Profile] [PM]
Display posts:    
Reply to topic

Current time is: 31-Mar 15:49

All times are UTC ± 0



You cannot post new topics in this forum
You cannot reply to topics in this forum
You cannot edit your posts in this forum
You cannot delete your posts in this forum
You cannot vote in polls in this forum
You cannot attach files in this forum
You can download files in this forum
Верим фактам, а не вранью Путина! Факт, что Правительство ведёт Россию к истреблению.
Так как численность населения падает, даже не смотря на приток эмигрантов!
Русская нация вымирает и вырождается, смешиваясь с эмигрантами!
Факт, что военных и граждан предприятий заставляют голосовать за партию Единая Россия и Путина
ПОД СТРАХОМ УВОЛЬНЕНИЯ!
Нам не нужно Правительство, блокирующее личную жизнь, интернет, нарушающее сохранность данных.
Все эти действия финансируются за счёт народа!