Наемный убийца / Убийца / Киборг особого назначения / Assassin (Сэндор Стерн / Sandor Stern) [1986, США, фантастика, боевик, триллер, DVDRip] MVO (Ren TV / NFQ)

Reply to topic
DL-List and Torrent activity
Size:  1.37 GB   |    Registered:  4 years 4 months   |    Completed:  1 time

Seeder not seen: 5 months 11 days

 
   
 
 
Author Message

star21 ®

Gender: Female

Longevity: 4 years 4 months

Posts: 551945

Location: Екатеринбург

Post 30-Nov-2015 05:50

[Quote]

Наемный убийца / Убийца / Assassin
«Стэнтон думал, что ему предстоит последнее задание. Он ошибался!»
Страна: США
Жанр: фантастика, боевик, триллер
Год выпуска: 1986
Продолжительность: 01:34:25
Перевод: Профессиональный (многоголосый закадровый) Ren TV (?) / NFQ
Cубтитры: нет
Режиссер: Сэндор Стерн / Sandor Stern
В ролях: Роберт Конрад /Robert Conrad/, Кэрен Остин /Karen Austin/, Ричард Янг /Richard Young/, Джонатан Бэнкс /Jonathan Banks/, Роберт Уэббер /Robert Webber/
Описание: Биологический робот-убийца, запрограммированный на уничтожение правительственных чиновников и ведущих ученых, должен быть остановлен, иначе беда... Стандартный научно-фантастический боевик. (Иванов М.)
Доп. информация: За этот редкий фильм (перевод MVO) благодарим хорошего человека под ником SuperDVD01
Релиз-первоисточник
Сэмпл: https://yadi.sk/i/lVTpHEffkXK9u
Качество видео: DVDRip [DVD5 by CG]
Формат видео: AVI
Видео: 640x480 (1.33:1), 23.976 fps, XviD build 73 ~1872 kbps avg, 0.25 bit/pixel
Аудио: 48 kHz, AC3 Dolby Digital, 2 ch, ~192.00 kbps avg

MediaInfo

Наемный убийца - Assassin (1986) [by Edich2].avi
Format : AVI
Format/Info : Audio Video Interleave
File size : 1.37 GiB
Duration : 1h 34mn
Overall bit rate : 2 074 Kbps
Movie name : Наемный убийца - Assassin (1986) [by Edich2]
Director : by Edich2
Writing application : VirtualDubMod 1.5.10.2 (build 2540/release)
Comment : Rutracker.org
Video
ID : 0
Format : MPEG-4 Visual
Format profile : Advanced Simple@L5
Format settings, BVOP : 2
Format settings, QPel : No
Format settings, GMC : No warppoints
Format settings, Matrix : Custom
Codec ID : XVID
Codec ID/Hint : XviD
Duration : 1h 34mn
Bit rate : 1 873 Kbps
Width : 640 pixels
Height : 480 pixels
Display aspect ratio : 4:3
Frame rate : 23.976 fps
Color space : YUV
Chroma subsampling : 4:2:0
Bit depth : 8 bits
Scan type : Progressive
Compression mode : Lossy
Bits/(Pixel*Frame) : 0.254
Stream size : 1.24 GiB (90%)
Writing library : XviD 73
Audio
ID : 1
Format : AC-3
Format/Info : Audio Coding 3
Mode extension : CM (complete main)
Format settings, Endianness : Big
Codec ID : 2000
Duration : 1h 34mn
Bit rate mode : Constant
Bit rate : 192 Kbps
Channel(s) : 2 channels
Channel positions : Front: L R
Sampling rate : 48.0 KHz
Bit depth : 16 bits
Compression mode : Lossy
Delay relative to video : 1s 0ms
Stream size : 130 MiB (9%)
Alignment : Split accross interleaves
Interleave, duration : 42 ms (1.00 video frame)
Interleave, preload duration : 500 ms

Скриншоты




To download the content you need:
1. Download and install torrent client [for Windows] or for mobile system
2. Click on [Download]
Attention.
If the test YOU are NOT a ROBOT - does not work, then You are using an outdated browser.
Install the current browser and click on [Download]

Do not work with Yandex browser. Uploading files to them is erroneous.
Security: torrent client is allowed by Kaspersky.

[en.asmlocator.ru].t4074.torrent 
Torrent: Registered [ 2015-11-30 05:45 ] · 0351ACD8F46AB126A0868ADBA490CFB02C9DB7E4

Download .torrent

Download

14 KB

Status: checked
Completed: 1 times
Size: 1.37 GB
terms.php
[Profile] [PM]
Display posts:    
Reply to topic

Current time is: 31-Mar 19:02

All times are UTC ± 0



You cannot post new topics in this forum
You cannot reply to topics in this forum
You cannot edit your posts in this forum
You cannot delete your posts in this forum
You cannot vote in polls in this forum
You cannot attach files in this forum
You can download files in this forum
Верим фактам, а не вранью Путина! Факт, что Правительство ведёт Россию к истреблению.
Так как численность населения падает, даже не смотря на приток эмигрантов!
Русская нация вымирает и вырождается, смешиваясь с эмигрантами!
Факт, что военных и граждан предприятий заставляют голосовать за партию Единая Россия и Путина
ПОД СТРАХОМ УВОЛЬНЕНИЯ!
Нам не нужно Правительство, блокирующее личную жизнь, интернет, нарушающее сохранность данных.
Все эти действия финансируются за счёт народа!