На альпийских лугах тишь да благодать / Auf der Alm da gibt\'s koa Sünd (Франц Йозеф Готлиб / Franz Josef Gottlieb) [1974, Германия (ФРГ), комедия, DVDRip] AVO (Юрий Живов)

Reply to topic
DL-List and Torrent activity
Size:  1.37 GB   |    Registered:  4 years   |    Completed:  2 times

Seeder not seen: 1 month 23 days

 
   
 
 
Author Message

star21 ®

Gender: Female

Longevity: 4 years 1 month

Posts: 551946

Location: Екатеринбург

Post 30-Nov-2015 05:50

[Quote]

На альпийских лугах тишь да благодать / Auf der Alm da gibt's koa Sünd
Страна: Германия (ФРГ)
Жанр: комедия
Год выпуска: 1974
Продолжительность: 01:18:28
Перевод: Авторский (одноголосый закадровый) Юрий Живов
Cубтитры: нет
Оригинальная аудиодорожка: нет
Режиссер: Франц Йозеф Готлиб / Franz Josef Gottlieb
В ролях: Алена Пенц, Александр Грилль, Ринальдо Таламонти, Александр Миллер, Ева Гарден, Сисси Лёвингер, Герд Айхен, Юрген Шиллинг, Вальтер Фойхтенберг
Описание: Профессор Соло открыл чудодейственную формулу, позволяющую производить чистую энергию из коровьего навоза. По его следам отправились двое секретных агентов, рассчитывающих похитить вожделенную запись. Но операция потерпела неудачу — микрофильм с формулой случайно оказался в руках владельца заправки. А поскольку дело происходило в одной баварской деревне, то тот не нашел ничего лучшего, как спрятать пленку в гульфик своих кожаных штанов. Как известно, любимое занятие баварских крестьян — это секс. Им они готовы заниматься круглые сутки. Но в процесс, к сожалению, часто вмешиваются посторонние факторы, вроде обманутых жен и мужей. В-общем, вскоре, в результате бурных эротических приключений, штаны с секретной формулой, сменили владельца, и чтобы найти нужный предмет одежды, горе-агентам пришлось активно присоединяться к сексуальным играм деревенских жителей...

Сэмпл: http://multi-up.com/1075807
Качество видео: DVDRip
Формат видео: AVI
Видео: DivX, 720х400, 2292 кбит/с, 25 fps, 0.318 b/px
Аудио: AC3, 192 кбит/с, 2 ch, 48 КГц

MediaInfo

Общее
Полное имя : E:\Auf.der.Alm.da.gibt's.koa.Sund_1974.DVDRip.avi
Формат : AVI
Формат/Информация : Audio Video Interleave
Размер файла : 1,37 Гбайт
Продолжительность : 1 ч. 18 м.
Общий поток : 2494 Кбит/сек
Программа кодирования : VirtualDubMod 1.5.10.3 | www.virtualdub-fr.org || (build 2550/release)
Библиотека кодирования : VirtualDubMod build 2550/release
Видео
Идентификатор : 0
Формат : MPEG-4 Visual
Профиль формата : Advanced Simple@L5
Параметр BVOP формата : 1
Параметр QPel формата : Нет
Параметр GMC формата : Без точки перехода
Параметр матрицы формата : Default (MPEG)
Идентификатор кодека : DX50
Идентификатор кодека/Подсказка : DivX 5
Продолжительность : 1 ч. 18 м.
Битрейт : 2292 Кбит/сек
Ширина : 720 пикселей
Высота : 400 пикселей
Соотношение сторон : 16:9
Частота кадров : 25,000 кадров/сек
Цветовое пространство : YUV
Субдискретизация насыщенности : 4:2:0
Битовая глубина : 8 бит
Тип развёртки : Прогрессивная
Метод сжатия : С потерями
Бит/(Пиксели*Кадры) : 0.318
Размер потока : 1,26 Гбайт (92%)
Библиотека кодирования : XviD 1.2.1 (UTC 2008-12-04)
Аудио
Идентификатор : 1
Формат : AC-3
Формат/Информация : Audio Coding 3
Расширение режима : CM (complete main)
Параметр Endianness формата : Big
Идентификатор кодека : 2000
Продолжительность : 1 ч. 18 м.
Вид битрейта : Постоянный
Битрейт : 192 Кбит/сек
Каналы : 2 канала
Расположение каналов : Front: L R
Частота : 48,0 КГц
Метод сжатия : С потерями
Размер потока : 108 Мбайт (8%)
Выравнивание : Разделение по промежуткам
Продолжительность промежутка : 40 мс. (1,00 видеокадр)
Время предзагрузки промежутка : 500 мс.

Скриншот c названием фильма

To download the content you need:
1. Download and install torrent client [for Windows] or for mobile system
2. Click on [Download]
Attention.
If the test YOU are NOT a ROBOT - does not work, then You are using an outdated browser.
Install the current browser and click on [Download]
Security: torrent client is allowed by Kaspersky.

[en.asmlocator.ru].t4073.torrent 
Torrent: Registered [ 2015-11-30 05:45 ] · 3099042614468D3E5D7BD369164958E5F034FFB5

Download .torrent

Download

14 KB

Status: checked
Completed: 2 times
Size: 1.37 GB
terms.php
[Profile] [PM]
Display posts:    
Reply to topic

Current time is: 12-Dec 19:01

All times are UTC ± 0



You cannot post new topics in this forum
You cannot reply to topics in this forum
You cannot edit your posts in this forum
You cannot delete your posts in this forum
You cannot vote in polls in this forum
You cannot attach files in this forum
You can download files in this forum
Верим фактам, а не вранью Путина! Факт, что Правительство ведёт Россию к истреблению.
Так как численность населения падает, даже не смотря на приток эмигрантов!
Русская нация вымирает и вырождается, смешиваясь с эмигрантами!
Факт, что военных и граждан предприятий заставляют голосовать за партию Единая Россия и Путина
ПОД СТРАХОМ УВОЛЬНЕНИЯ!
Нам не нужно Правительство, блокирующее личную жизнь, интернет, нарушающее сохранность данных.
Все эти действия финансируются за счёт народа!