Мир Бастера / Мир Бустера / Busters verden (Билле Аугуст / Bille August) [1984, Дания, Семейный, DVDRip] VO + Sub Rus + Original Dan

Reply to topic
DL-List and Torrent activity
Size:  881 MB   |    Registered:  4 years   |    Completed:  1 time

Seeder not seen: 1 month 26 days

 
   
 
 
Author Message

star21 ®

Gender: Female

Longevity: 4 years 1 month

Posts: 551946

Location: Екатеринбург

Post 30-Nov-2015 05:50

[Quote]

Мир Бастера / Мир Бустера / Busters verden
Страна: Дания
Жанр: Семейный
Год выпуска: 1984
Продолжительность: 01:26:02
Перевод: Одноголосый закадровый
Cубтитры: русские
Оригинальная аудиодорожка: датский
Режиссер: Билле Аугуст / Bille August
В ролях: Мэдс Бугге Андерсен, Петер Шрёдер, Катя Миэ-Ренар, Синье Даль Мэдсен, Джэнни Фаурскоу, Бастер Ларсен, Лиллиан Тиллегрен, Оле Теструп
Описание: Больше всего на свете Бустер Орегон Мортенсен, или просто Бустер, любит показывать фокусы. Жаль, что пока их видели только папа, мама, младшая сестрёнка Ингеборг и фру Ларсен, но он не теряет надежды удивить весь город. И пусть он далеко не лучший ученик в школе, разве это главное в жизни? Смешная и временами трогательная история про мир детства, мир Бустера, для семейного просмотра.
Доп. информация: Фильм взят отсюда
Сэмпл: http://multi-up.com/1075890
Качество видео: DVDRip
Формат видео: AVI
Видео: 508x314 (1.62:1), 25 fps, Intel ITU H.264 ~1191 kbps avg, 0.30 bit/pixel
Аудио 1: 48 kHz, MPEG Layer 3, 2 ch, ~112.00 kbps avg(Русский)
Аудио 2: 44.100 kHz, MPEG Layer 3, 2 ch, ~112.00 kbps avg(Датский)
Формат субтитров: softsub (SRT)
Доп. информация о субтитрах: Русские внешние (Kidkong)

MediaInfo

Общее
Полное имя : F:\С моей озвучкой\Мир Бустера\Мир Бустера.avi
Формат : AVI
Формат/Информация : Audio Video Interleave
Размер файла : 881 Мбайт
Продолжительность : 1 ч. 26 м.
Общий поток : 1431 Кбит/сек
Программа кодирования : VirtualDubModRus 1.5.10.2 (build 2542/release)
Библиотека кодирования : VirtualDubMod build 2542/release
Видео
Идентификатор : 0
Формат : AVC
Формат/Информация : Advanced Video Codec
Профиль формата : Baseline@L2.1
Параметр CABAC формата : Нет
Параметр ReFrames формата : 1 кадр
Параметр GOP формата : M=1, N=12
Идентификатор кодека : H264
Продолжительность : 1 ч. 26 м.
Битрейт : 1200 Кбит/сек
Ширина : 508 пикселей
Высота : 314 пикселей
Соотношение сторон : 16:10
Частота кадров : 25,000 кадров/сек
Цветовое пространство : YUV
Субдискретизация насыщенности : 4:2:0
Битовая глубина : 8 бит
Тип развёртки : Прогрессивная
Бит/(Пиксели*Кадры) : 0.301
Размер потока : 734 Мбайт (83%)
Библиотека кодирования : x264 core 77
Настройки программы : cabac=0 / ref=1 / deblock=0:0:0 / analyse=0x1:0 / me=dia / subme=8 / psy=1 / psy_rd=1.0:0.0 / mixed_ref=0 / me_range=16 / chroma_me=0 / trellis=0 / 8x8dct=0 / cqm=0 / deadzone=21,11 / chroma_qp_offset=-2 / threads=1 / nr=0 / decimate=1 / mbaff=0 / constrained_intra=0 / bframes=0 / keyint=12 / keyint_min=7 / scenecut=0 / rc_lookahead=12 / rc=abr / mbtree=1 / bitrate=1200 / ratetol=1.0 / qcomp=0.60 / qpmin=10 / qpmax=51 / qpstep=4 / ip_ratio=1.41 / aq=1:1.00
Аудио #1
Идентификатор : 1
Формат : MPEG Audio
Версия формата : Version 1
Профиль формата : Layer 3
Режим : Joint stereo
Расширение режима : MS Stereo
Идентификатор кодека : 55
Идентификатор кодека/Подсказка : MP3
Продолжительность : 1 ч. 26 м.
Вид битрейта : Постоянный
Битрейт : 112 Кбит/сек
Каналы : 2 канала
Частота : 48,0 КГц
Метод сжатия : С потерями
Размер потока : 68,9 Мбайт (8%)
Выравнивание : Соединение по промежуткам
Продолжительность промежутка : 40 мс. (1,00 видеокадр)
Время предзагрузки промежутка : 504 мс.
Библиотека кодирования : LAME3.96
Аудио #2
Идентификатор : 2
Формат : MPEG Audio
Версия формата : Version 1
Профиль формата : Layer 3
Режим : Joint stereo
Расширение режима : MS Stereo
Идентификатор кодека : 55
Идентификатор кодека/Подсказка : MP3
Продолжительность : 1 ч. 26 м.
Вид битрейта : Постоянный
Битрейт : 112 Кбит/сек
Каналы : 2 канала
Частота : 44,1 КГц
Метод сжатия : С потерями
Размер потока : 68,9 Мбайт (8%)
Выравнивание : Разделение по промежуткам
Продолжительность промежутка : 40 мс. (1,00 видеокадр)
Время предзагрузки промежутка : 500 мс.

Скриншоты

To download the content you need:
1. Download and install torrent client [for Windows] or for mobile system
2. Click on [Download]
Attention.
If the test YOU are NOT a ROBOT - does not work, then You are using an outdated browser.
Install the current browser and click on [Download]
Security: torrent client is allowed by Kaspersky.

[en.asmlocator.ru].t4072.torrent 
Torrent: Registered [ 2015-11-30 05:45 ] · D908EDB6F96680F7DAD1AA8745F5DE0BD34D2DFF

Download .torrent

Download

18 KB

Status: checked
Completed: 1 times
Size: 881 MB
terms.php
[Profile] [PM]
Display posts:    
Reply to topic

Current time is: 15-Dec 00:35

All times are UTC ± 0



You cannot post new topics in this forum
You cannot reply to topics in this forum
You cannot edit your posts in this forum
You cannot delete your posts in this forum
You cannot vote in polls in this forum
You cannot attach files in this forum
You can download files in this forum
Верим фактам, а не вранью Путина! Факт, что Правительство ведёт Россию к истреблению.
Так как численность населения падает, даже не смотря на приток эмигрантов!
Русская нация вымирает и вырождается, смешиваясь с эмигрантами!
Факт, что военных и граждан предприятий заставляют голосовать за партию Единая Россия и Путина
ПОД СТРАХОМ УВОЛЬНЕНИЯ!
Нам не нужно Правительство, блокирующее личную жизнь, интернет, нарушающее сохранность данных.
Все эти действия финансируются за счёт народа!