Следопыты времени / Time Trackers (Ховард Р. Коэн / Howard R. Cohen) [1989, США, фантастика, боевик, приключения, VHSRip] AVO (Визгунов)

Reply to topic
DL-List and Torrent activity
Size:  1.36 GB   |    Registered:  4 years   |    Completed:  1 time

Seeder not seen: 1 month 23 days

 
   
 
 
Author Message

star21 ®

Gender: Female

Longevity: 4 years 1 month

Posts: 551946

Location: Екатеринбург

Post 30-Nov-2015 05:50

[Quote]

Следопыты времени / Time Trackers
Страна: США
Жанр: фантастика, боевик, приключения
Год выпуска: 1989
Продолжительность: 01:28:34
Перевод: Авторский (одноголосый закадровый) Визгунов
Cубтитры: нет
Режиссер: Ховард Р. Коэн / Howard R. Cohen
В ролях: Уил Шрайнер
Нед Битти
Кэтлин Бэллер
Бриджит Хоффман
Алекс Хайд-Вайт
Ли Бергер
Парли Баэр
Роберт Корнтуэйт
Жан Мерлин
Терренс Бисор
Описание: Когда злой ученый крадет машину времени своего коллеги, красивая, блистательная дочь коллеги, при помощи лос-анджелесского полицейского и несчастного поклонника (Уил Шрайнер), следует за ним в Англию двенадцатого столетия, где, под видом девицы в беде, заручается поддержкой странствующего рыцаря, чье таинственное прошлое хранит ключ к ее будущему.
Доп. информация: Спасибо Анна57 - за VHS
Релиз
Сэмпл: https://yadi.sk/i/RZA6uyCQkZKhX
Качество видео: VHSRip
Формат видео: AVI
Видео: 640x480 (1.33:1), 25 fps, XviD build 73 ~2000 kbps avg, 0.26 bit/pixel
Аудио: 48 kHz, AC3 Dolby Digital, 2/0 (L,R) ch, ~192 kbps

MediaInfo

Следопыты времени - Time Trackers [by Edich2].avi
Format : AVI
Format/Info : Audio Video Interleave
File size : 1.36 GiB
Duration : 1h 28mn
Overall bit rate : 2 202 Kbps
Movie name : Следопыты времени - Time Trackers [by Edich2]
Director : by Edich2
Writing application : VirtualDubMod 1.5.10.3 | www.virtualdub-fr.org || (build 2550/release)
Comment : RuTracker.org
Video
ID : 0
Format : MPEG-4 Visual
Format profile : Advanced Simple@L5
Format settings, BVOP : 2
Format settings, QPel : No
Format settings, GMC : No warppoints
Format settings, Matrix : Custom
Codec ID : XVID
Codec ID/Hint : XviD
Duration : 1h 28mn
Bit rate : 2 001 Kbps
Width : 640 pixels
Height : 480 pixels
Display aspect ratio : 4:3
Frame rate : 25.000 fps
Color space : YUV
Chroma subsampling : 4:2:0
Bit depth : 8 bits
Scan type : Progressive
Compression mode : Lossy
Bits/(Pixel*Frame) : 0.260
Stream size : 1.24 GiB (91%)
Writing library : XviD 73
Audio
ID : 1
Format : AC-3
Format/Info : Audio Coding 3
Mode extension : CM (complete main)
Format settings, Endianness : Big
Codec ID : 2000
Duration : 1h 28mn
Bit rate mode : Constant
Bit rate : 192 Kbps
Channel(s) : 2 channels
Channel positions : Front: L R
Sampling rate : 48.0 KHz
Bit depth : 16 bits
Compression mode : Lossy
Stream size : 122 MiB (9%)
Alignment : Split accross interleaves
Interleave, duration : 40 ms (1.00 video frame)
Interleave, preload duration : 500 ms

Скриншоты


To download the content you need:
1. Download and install torrent client [for Windows] or for mobile system
2. Click on [Download]
Attention.
If the test YOU are NOT a ROBOT - does not work, then You are using an outdated browser.
Install the current browser and click on [Download]
Security: torrent client is allowed by Kaspersky.

[en.asmlocator.ru].t4071.torrent 
Torrent: Registered [ 2015-11-30 05:45 ] · 5DF27A62BB8E626FF91B9780C1B956E4387FB939

Download .torrent

Download

14 KB

Status: checked
Completed: 1 times
Size: 1.36 GB
terms.php
[Profile] [PM]
Display posts:    
Reply to topic

Current time is: 12-Dec 04:52

All times are UTC ± 0



You cannot post new topics in this forum
You cannot reply to topics in this forum
You cannot edit your posts in this forum
You cannot delete your posts in this forum
You cannot vote in polls in this forum
You cannot attach files in this forum
You can download files in this forum
Верим фактам, а не вранью Путина! Факт, что Правительство ведёт Россию к истреблению.
Так как численность населения падает, даже не смотря на приток эмигрантов!
Русская нация вымирает и вырождается, смешиваясь с эмигрантами!
Факт, что военных и граждан предприятий заставляют голосовать за партию Единая Россия и Путина
ПОД СТРАХОМ УВОЛЬНЕНИЯ!
Нам не нужно Правительство, блокирующее личную жизнь, интернет, нарушающее сохранность данных.
Все эти действия финансируются за счёт народа!