Пятница 13-е. Часть 7: Новая кровь / Friday the 13th. Part 7: The new blood (Джон Карл Бюхлер / John Carl Buechler) [1988, США, ужасы, VHSRip] [FullScreen] AVO (Юрий Живов)

Reply to topic
DL-List and Torrent activity
Size:  1.37 GB   |    Registered:  4 years 7 months   |    Completed:  0 times

Seeder not seen: 2 years 9 months

 
   
 
 
Author Message

star21 ®

Gender: Female

Longevity: 4 years 8 months

Posts: 551945

Location: Екатеринбург

Post 30-Nov-2015 05:50

[Quote]

Пятница 13-е. Часть 7: Новая кровь / Friday the 13th. Part 7: The new blood
[FullScreen]
Страна: США
Жанр: ужасы
Год выпуска: 1988
Продолжительность: 01:28:02
Перевод: Авторский (одноголосый закадровый) Юрий Живов
Cубтитры: нет
Режиссер: Джон Карл Бюхлер / John Carl Buechler
В ролях: Дженнифер Банко (Young Tina Shepard), Джон Отрин (Mr. John Shepard), Сьюзэн Блу (Mrs. Amanda Shepard), Лар Парк-Линкольн (Tina Shepard), Терри Кайзер (Dr. Crews), Кевин Спиртас (Nick), Сьюзэн Дженнифер Салливан (Melissa), Хайди Козак (Sandra), Кэйн Ходдер (Jason Voorhees), Уильям Батлер (Michael), Стэйси Грисон (Jane)
Описание: Аннотация от alenavova
В 7-ой серии Джейсон вновь восстает, как Феникс из пепла, и вливает новую кровь в сериал в прямом и переносном смысле. Сюжет снова становится свежим и динамичным. Симпотичная блондинка, обладающая парапсихологоческими способностями, вместе с мамой и психиатром имела глупость приехать на озеро Кристал-лейк. Первая же попытка юной красавицы, в незапамятные времена утопившая своего отца (или отчима?), поднять останки своего несчастного родственника со дна озера, заканчивается трагически: девушка побуждает к жизни Джейсона, также покоившегося на этом дне. Джейсон, режущий подростков, нарвался на экстрасенса и девушка вступает в жесточайшую схватку с ним... Джон Карл Бюхлер, мастер спецэффектов, прославился своей режиссерской работой "Тролль". "Новая кровь" - не хуже. Не "Хэллоуин", но вполне смотрибельно, динамично и иногда захватывает дух (особенно в непременных сценах жанра "хоррор" - когда Джейсон ломится в дом, где прячется девушка).
Доп. информация: Оцифровка VHS (личный архив) и получение VHSRip alenavova
Эксклюзив для rutracker.org. При размещении данного релиза на других сайтах ссылка на автора alenavova обязательна.

Релиз
Сэмпл: https://yadi.sk/i/ljCKFdKQkZPnu
Качество видео: VHSRip
Формат видео: AVI
Видео: 704x528 (1.33:1), 25 fps, XviD build 73 ~2021 kbps avg, 0.22 bit/pixel
Аудио: 48 kHz, AC3 Dolby Digital, 2/0 (L,R) ch, ~192 kbps

MediaInfo

Пятница-13. Часть-7. Новая кровь - Friday the 13th. Part 7 The new blood (by alenavova).avi
Format : AVI
Format/Info : Audio Video Interleave
File size : 1.37 GiB
Duration : 1h 28mn
Overall bit rate : 2 224 Kbps
Movie name : Пятница-13. Часть-7. Новая кровь - Friday the 13th. Part 7 The new blood (by alenavova)
Director : by alenavova
Writing application : VirtualDubMod 1.5.10.3 | www.virtualdub-fr.org || (build 2550/release)
Copyright : Edich2
Comment : RuTracker.org
Video
ID : 0
Format : MPEG-4 Visual
Format profile : Advanced Simple@L5
Format settings, BVOP : 2
Format settings, QPel : No
Format settings, GMC : No warppoints
Format settings, Matrix : Custom
Codec ID : XVID
Codec ID/Hint : XviD
Duration : 1h 28mn
Bit rate : 2 022 Kbps
Width : 704 pixels
Height : 528 pixels
Display aspect ratio : 4:3
Frame rate : 25.000 fps
Color space : YUV
Chroma subsampling : 4:2:0
Bit depth : 8 bits
Scan type : Progressive
Compression mode : Lossy
Bits/(Pixel*Frame) : 0.218
Stream size : 1.24 GiB (91%)
Writing library : XviD 73
Audio
ID : 1
Format : AC-3
Format/Info : Audio Coding 3
Mode extension : CM (complete main)
Format settings, Endianness : Big
Codec ID : 2000
Duration : 1h 28mn
Bit rate mode : Constant
Bit rate : 192 Kbps
Channel(s) : 2 channels
Channel positions : Front: L R
Sampling rate : 48.0 KHz
Bit depth : 16 bits
Compression mode : Lossy
Stream size : 121 MiB (9%)
Alignment : Split accross interleaves
Interleave, duration : 40 ms (1.00 video frame)
Interleave, preload duration : 500 ms

Скриншоты


To download the content you need:
1. Download and install torrent client [for Windows] or for mobile system
2. Click on [Download]
Attention.
If the test YOU are NOT a ROBOT - does not work, then You are using an outdated browser.
Install the current browser and click on [Download]

Do not work with Yandex browser. Uploading files to them is erroneous.
Security: torrent client is allowed by Kaspersky.

[en.asmlocator.ru].t4070.torrent 
Torrent: Registered [ 2015-11-30 05:45 ] · AEB5467C71E4F0DA2CE64DA0D6EAB9DA9BCDDCF0

Download .torrent

Download

14 KB

Status: checked
Completed: 0 times
Size: 1.37 GB
terms.php
[Profile] [PM]
Display posts:    
Reply to topic

Current time is: 13-Jul 20:10

All times are UTC ± 0



You cannot post new topics in this forum
You cannot reply to topics in this forum
You cannot edit your posts in this forum
You cannot delete your posts in this forum
You cannot vote in polls in this forum
You cannot attach files in this forum
You can download files in this forum