Пятница 13-ое 8: Джейсон захватывает Манхэттен / Friday the 13th Part VIII: Jason Takes Manhattan (Роб Хедден / Rob Hedden) [1989, США, слэшер, ужасы, VHSRip] [FullScreen] AVO (Юрий Живов)

Reply to topic
DL-List and Torrent activity
Size:  1.37 GB   |    Registered:  4 years 7 months   |    Completed:  0 times

Seeder not seen: 3 years 2 months

 
   
 
 
Author Message

star21 ®

Gender: Female

Longevity: 4 years 8 months

Posts: 551945

Location: Екатеринбург

Post 30-Nov-2015 05:50

[Quote]

Пятница 13-ое 8: Джейсон захватывает Манхэттен / Friday the 13th Part VIII: Jason Takes Manhattan
[FullScreen]
Страна: США
Жанр: слэшер, ужасы
Год выпуска: 1989
Продолжительность: 01:40:20
Перевод: Авторский (одноголосый закадровый) Юрий Живов
Cубтитры: нет
Режиссер: Роб Хедден / Rob Hedden
В ролях: Тиффани Полсен, Тим Миркович, Кэйн Ходдер, Дженсен Даггетт, Барбара Бингхэм, Алекс Дьякун, Питер Марк Ричман, Уоррен Мансон, Фред Хендерсон, Скотт Ривз
Описание: Аннотация от alenavova
Молодая парочка на катере занималась любовью, а катер плыл по течению. Якорь не был выбран на палубу и потом зацепил какую-то корягу на дне, а под ней покоился Джейсон. Сначала он разобрался с обитателями катера, а затем с обитателями громадного океанского лайнера. Группа захвата наконец-то устраивает засаду на жестокого маньяка-убийцу Джейсона и уничтожает его. Однако в морге из тела убитого к врачу в организм перебирается змеевидный монстр. И вот уже с большей жестокостью начинается уничтожение всего живого, что попадается на пути.
Доп. информация: Оцифровка VHS (личный архив) и получение VHSRip alenavova
Эксклюзив для rutracker.org. При размещении данного релиза на других сайтах ссылка на автора alenavova обязательна.

Релиз
Сэмпл: https://yadi.sk/i/ZmNbPReukZTeV
Качество видео: VHSRip
Формат видео: AVI
Видео: 704x528 (1.33:1), 25 fps, XviD build 73 ~1750 kbps avg, 0.19 bit/pixel
Аудио: 48 kHz, AC3 Dolby Digital, 2/0 (L,R) ch, ~192 kbps

MediaInfo

Пятница-13. Часть-8. Джейсон захватывает Манхэттен - 13th Part VIII (by alenavova).avi
Format : AVI
Format/Info : Audio Video Interleave
File size : 1.37 GiB
Duration : 1h 40mn
Overall bit rate : 1 952 Kbps
Movie name : Пятница-13. Часть-8. Джейсон захватывает Манхэттен - 13th Part VIII (by alenavova)
Director : by alenavova
Writing application : VirtualDubMod 1.5.10.3 | www.virtualdub-fr.org || (build 2550/release)
Copyright : Edich2
Comment : RuTracker.org
Video
ID : 0
Format : MPEG-4 Visual
Format profile : Advanced Simple@L5
Format settings, BVOP : 2
Format settings, QPel : No
Format settings, GMC : No warppoints
Format settings, Matrix : Custom
Codec ID : XVID
Codec ID/Hint : XviD
Duration : 1h 40mn
Bit rate : 1 751 Kbps
Width : 704 pixels
Height : 528 pixels
Display aspect ratio : 4:3
Frame rate : 25.000 fps
Color space : YUV
Chroma subsampling : 4:2:0
Bit depth : 8 bits
Scan type : Progressive
Compression mode : Lossy
Bits/(Pixel*Frame) : 0.188
Stream size : 1.23 GiB (90%)
Writing library : XviD 73
Audio
ID : 1
Format : AC-3
Format/Info : Audio Coding 3
Mode extension : CM (complete main)
Format settings, Endianness : Big
Codec ID : 2000
Duration : 1h 40mn
Bit rate mode : Constant
Bit rate : 192 Kbps
Channel(s) : 2 channels
Channel positions : Front: L R
Sampling rate : 48.0 KHz
Bit depth : 16 bits
Compression mode : Lossy
Stream size : 138 MiB (10%)
Alignment : Split accross interleaves
Interleave, duration : 40 ms (1.00 video frame)
Interleave, preload duration : 500 ms

Скриншоты


To download the content you need:
1. Download and install torrent client [for Windows] or for mobile system
2. Click on [Download]
Attention.
If the test YOU are NOT a ROBOT - does not work, then You are using an outdated browser.
Install the current browser and click on [Download]

Do not work with Yandex browser. Uploading files to them is erroneous.
Security: torrent client is allowed by Kaspersky.

[en.asmlocator.ru].t4069.torrent 
Torrent: Registered [ 2015-11-30 05:45 ] · AB4C948275C03711DB2C45F0C5986AD21D8B30AE

Download .torrent

Download

14 KB

Status: checked
Completed: 0 times
Size: 1.37 GB
terms.php
[Profile] [PM]
Display posts:    
Reply to topic

Current time is: 10-Jul 11:57

All times are UTC ± 0



You cannot post new topics in this forum
You cannot reply to topics in this forum
You cannot edit your posts in this forum
You cannot delete your posts in this forum
You cannot vote in polls in this forum
You cannot attach files in this forum
You can download files in this forum
Верим фактам, а не вранью Путина! Факт, что Правительство ведёт Россию к истреблению.
Так как численность населения падает, даже не смотря на приток эмигрантов!
Русская нация вымирает и вырождается, смешиваясь с эмигрантами!
Факт, что военных и граждан предприятий заставляют голосовать за партию Единая Россия и Путина
ПОД СТРАХОМ УВОЛЬНЕНИЯ!
Нам не нужно Правительство, блокирующее личную жизнь, интернет, нарушающее сохранность данных.
Все эти действия финансируются за счёт народа!