Мужчины предпочитают толстушек / Les hommes preferent les grosses (Жан-Мари Пуаре / Jean-Marie Poire) [1981, Франция, комедия, DVDRip] Sub Rus (Антон Каптелов) + Original Fre

Reply to topic
DL-List and Torrent activity
Size:  1.36 GB   |    Registered:  4 years   |    Completed:  0 times

Seeder not seen: 1 year 11 months

 
   
 
 
Author Message

star21 ®

Gender: Female

Longevity: 4 years 1 month

Posts: 551946

Location: Екатеринбург

Post 30-Nov-2015 05:50

[Quote]

Мужчины предпочитают толстушек / Les hommes preferent les grosses Страна: Франция
Жанр: комедия
Год выпуска: 1981
Продолжительность: 01:19:38
Перевод: Субтитры Антон Каптелов
Cубтитры: русские
Оригинальная аудиодорожка: французский
Режиссер: Жан-Мари Пуаре / Jean-Marie Poire
В ролях: Жозиан Баласко, Даниель Отой, Доминик Лаванан, Тьерри Лермитт, Валери Каприски, Луис Рего, Ариан Лартеги, Ксавьер Сен-Макари, Франсуа-Эрик Жандрон, Мартен Ламотт, Патриция Мальвуазен
Описание: Неуклюжую толстушку Лиди бросил жених и девушка оказалась не в состоянии платить за квартиру. Тогда она решает найти компаньонку, чтобы разделить арендную плату. На объявление откликается разбитная модель Ева, которая тащит с собой свои проблемы, а также своих бывших и настоящих мужчин, из-за чего возникает множество смешных и нелепых ситуаций, в которых постоянно крайней оказывается Лиди.
Сэмпл: http://multi-up.com/1076063
Качество видео: DVDRip
Формат видео: AVI
Видео: 640x384 (1.67:1), 25 fps, XviD build 47 ~2245 kbps avg, 0.36 bit/pixel
Аудио: 48 kHz, AC3 Dolby Digital, 2/0 (L,R) ch, ~192 kbps
Формат субтитров: softsub (SRT)

MediaInfo

Format : AVI
Format/Info : Audio Video Interleave
File size : 1.36 GiB
Duration : 1h 19mn
Overall bit rate : 2 448 Kbps
Video
ID : 0
Format : MPEG-4 Visual
Format profile : Advanced Simple@L5
Format settings, BVOP : 1
Format settings, QPel : No
Format settings, GMC : No warppoints
Format settings, Matrix : Default (MPEG)
Codec ID : XVID
Codec ID/Hint : XviD
Duration : 1h 19mn
Bit rate : 2 246 Kbps
Width : 640 pixels
Height : 384 pixels
Display aspect ratio : 1.667
Frame rate : 25.000 fps
Color space : YUV
Chroma subsampling : 4:2:0
Bit depth : 8 bits
Scan type : Progressive
Compression mode : Lossy
Bits/(Pixel*Frame) : 0.366
Stream size : 1.25 GiB (92%)
Writing library : XviD 1.2.0.dev47 (UTC 2006-11-01)
Audio
ID : 1
Format : AC-3
Format/Info : Audio Coding 3
Mode extension : CM (complete main)
Format settings, Endianness : Big
Codec ID : 2000
Duration : 1h 19mn
Bit rate mode : Constant
Bit rate : 192 Kbps
Channel(s) : 2 channels
Channel positions : Front: L R
Sampling rate : 48.0 KHz
Bit depth : 16 bits
Compression mode : Lossy
Stream size : 109 MiB (8%)
Alignment : Split accross interleaves
Interleave, duration : 40 ms (1.00 video frame)
Interleave, preload duration : 500 ms

Скриншот c названием фильма

Пример субтитров

14
00:02:06,880 --> 00:02:08,871
Не пора сделать перерыв?
Нет?
15
00:02:09,360 --> 00:02:11,086
Еще одно усилие!
16
00:02:11,257 --> 00:02:13,641
Это тяжело. Но все хорошее
дается тяжело.
17
00:02:13,884 --> 00:02:15,587
Но Поль совсем измотан.
18
00:02:15,872 --> 00:02:18,349
С ним все будет хорошо.
А ты не могла выбрать себе кого-то поспортивнее?
19
00:02:18,600 --> 00:02:21,125
Он - из интеллектуалов.
20
00:02:23,263 --> 00:02:24,803
Постарайтесь сделать рывок!
21
00:02:24,962 --> 00:02:26,537
Я и так стараюсь, как могу!
22
00:02:30,867 --> 00:02:32,491
Мозги есть или нет?
23
00:02:36,624 --> 00:02:38,853
Ты знаешь новости?
Я сняла квартиру.
24
00:02:39,255 --> 00:02:40,862
О, замечательно!
25
00:02:41,770 --> 00:02:43,958
- Для тебя и Поля?
- Да, но это сюрприз.
26
00:02:44,344 --> 00:02:46,592
Нужно оплатить депозит,
а так - действительно замечательно!
27
00:02:46,854 --> 00:02:48,748
Она находится над Порт-де-Пантин.
28
00:02:48,930 --> 00:02:51,720
- Почему же ты ничего не говорила?
- Потому!
29
00:02:51,920 --> 00:02:53,889
Потому что я хочу, чтобы сначала
все устроилось.
30
00:02:54,945 --> 00:02:56,429
Я взвинченная, как блоха!
31
00:02:56,509 --> 00:02:58,713
Теперь все будет готово
для наших с ним отношений, знаешь ли.
32
00:03:01,840 --> 00:03:04,393
Как скажешь!
Но где же твой Поль?
33
00:03:08,200 --> 00:03:09,719
Поль!
34
00:03:12,062 --> 00:03:14,083
Я не знаю, как ей сказать.
Огромное спасибо Антону Каптелову за перевод фильма!

To download the content you need:
1. Download and install torrent client [for Windows] or for mobile system
2. Click on [Download]
Attention.
If the test YOU are NOT a ROBOT - does not work, then You are using an outdated browser.
Install the current browser and click on [Download]
Security: torrent client is allowed by Kaspersky.

[en.asmlocator.ru].t4066.torrent 
Torrent: Registered [ 2015-11-30 05:45 ] · A06268E355A99AFA30F3A1A75179524AF6F94F0C

Download .torrent

Download

14 KB

Status: checked
Completed: 0 times
Size: 1.36 GB
terms.php
[Profile] [PM]
Display posts:    
Reply to topic

Current time is: 12-Dec 17:15

All times are UTC ± 0



You cannot post new topics in this forum
You cannot reply to topics in this forum
You cannot edit your posts in this forum
You cannot delete your posts in this forum
You cannot vote in polls in this forum
You cannot attach files in this forum
You can download files in this forum
Верим фактам, а не вранью Путина! Факт, что Правительство ведёт Россию к истреблению.
Так как численность населения падает, даже не смотря на приток эмигрантов!
Русская нация вымирает и вырождается, смешиваясь с эмигрантами!
Факт, что военных и граждан предприятий заставляют голосовать за партию Единая Россия и Путина
ПОД СТРАХОМ УВОЛЬНЕНИЯ!
Нам не нужно Правительство, блокирующее личную жизнь, интернет, нарушающее сохранность данных.
Все эти действия финансируются за счёт народа!