Вспомнить всё / Возвращение памяти / Total Recall (Пол Верховен / Paul Verhoeven) [1990, США, фантастика, боевик, HDRip] AVO (Андрей Гаврилов (ранний))

Reply to topic
DL-List and Torrent activity
Size:  1.46 GB   |    Registered:  4 years   |    Completed:  0 times

Seeder not seen: Never

 
   
 
 
Author Message

star21 ®

Gender: Female

Longevity: 4 years 1 month

Posts: 551946

Location: Екатеринбург

Post 30-Nov-2015 05:50

[Quote]

Вспомнить всё / Возвращение памяти / Total Recall
«Приготовьтесь к путешествию по своей жизни»
Страна: США
Жанр: фантастика, боевик
Год выпуска: 1990
Продолжительность: 01:53:33
Перевод: Авторский (одноголосый закадровый) Андрей Гаврилов (ранний)
Cубтитры: нет
Режиссер: Пол Верховен / Paul Verhoeven
В ролях: Арнольд Шварценеггер, Рэйчел Тикотин, Шэрон Стоун, Ронни Кокс, Майкл Айронсайд, Маршалл Белл
Описание: Жизнь простого рабочего парня Дага Куэйда скучна и однообразна. Поэтому, чтобы хоть как-то поразвлечься, он решает воспользоваться услугами некой компании, которая за определенную плату посылает в его мозг импульсы, создающие полную иллюзию того, что он - другой человек, живущий другой, интересной жизнью.
Всё бы хорошо, но после сеанса Дагу совершенно невозможно понять, кто же он на самом деле - простой работяга или спецназовец, владеющий всеми видами оружия и боевых искусств. Его боятся, его хотят убить, на него открыт сезон охоты; даже любимая жена пытается свернуть ему шею. Теперь, чтобы выжить, ему необходимо вспомнить, вспомнить всё...
Доп. информация: За дорожку и синхрон спасибо - DeASS
Видеоряд отсюда
Релиз
Сэмпл: https://yadi.sk/i/HrpQh-t_kcPMd
Качество видео: HDRip
Формат видео: AVI
Видео: 720x384 (1.88:1), 23.976 fps, XviD build 73 ~1644 kbps avg, 0.25 bit/pixel
Аудио: 48 kHz, AC3 Dolby Digital, 2/0 (L,R) ch, ~192 kbps

MediaInfo

Вспомнить всё - Total Recall [by Edich2].avi
Format : AVI
Format/Info : Audio Video Interleave
File size : 1.46 GiB
Duration : 1h 53mn
Overall bit rate : 1 846 Kbps
Movie name : Вспомнить всё - Total Recall [by Edich2]
Director : by Edich2
Writing application : VirtualDubMod 1.5.10.3 | www.virtualdub-fr.org || (build 2550/release)
Comment : RuTracker.org
Video
ID : 0
Format : MPEG-4 Visual
Format profile : Advanced Simple@L5
Format settings, BVOP : 1
Format settings, QPel : No
Format settings, GMC : No warppoints
Format settings, Matrix : Default (H.263)
Codec ID : XVID
Codec ID/Hint : XviD
Duration : 1h 53mn
Bit rate : 1 645 Kbps
Width : 720 pixels
Height : 384 pixels
Display aspect ratio : 1.85:1
Frame rate : 23.976 fps
Color space : YUV
Chroma subsampling : 4:2:0
Bit depth : 8 bits
Scan type : Progressive
Compression mode : Lossy
Bits/(Pixel*Frame) : 0.248
Stream size : 1.30 GiB (89%)
Writing library : XviD 73
Audio
ID : 1
Format : AC-3
Format/Info : Audio Coding 3
Mode extension : CM (complete main)
Format settings, Endianness : Big
Codec ID : 2000
Duration : 1h 53mn
Bit rate mode : Constant
Bit rate : 192 Kbps
Channel(s) : 2 channels
Channel positions : Front: L R
Sampling rate : 48.0 KHz
Bit depth : 16 bits
Compression mode : Lossy
Delay relative to video : 28ms
Stream size : 156 MiB (10%)
Alignment : Split accross interleaves
Interleave, duration : 42 ms (1.00 video frame)
Interleave, preload duration : 500 ms

Скриншоты


To download the content you need:
1. Download and install torrent client [for Windows] or for mobile system
2. Click on [Download]
Attention.
If the test YOU are NOT a ROBOT - does not work, then You are using an outdated browser.
Install the current browser and click on [Download]
Security: torrent client is allowed by Kaspersky.

[en.asmlocator.ru].t4065.torrent 
Torrent: Registered [ 2015-11-30 05:45 ] · 961A1168B79B08C41E65EFC604CC01B1DC91B070

Download .torrent

Download

15 KB

Status: checked
Completed: 0 times
Size: 1.46 GB
terms.php
[Profile] [PM]
Display posts:    
Reply to topic

Current time is: 12-Dec 02:39

All times are UTC ± 0



You cannot post new topics in this forum
You cannot reply to topics in this forum
You cannot edit your posts in this forum
You cannot delete your posts in this forum
You cannot vote in polls in this forum
You cannot attach files in this forum
You can download files in this forum
Верим фактам, а не вранью Путина! Факт, что Правительство ведёт Россию к истреблению.
Так как численность населения падает, даже не смотря на приток эмигрантов!
Русская нация вымирает и вырождается, смешиваясь с эмигрантами!
Факт, что военных и граждан предприятий заставляют голосовать за партию Единая Россия и Путина
ПОД СТРАХОМ УВОЛЬНЕНИЯ!
Нам не нужно Правительство, блокирующее личную жизнь, интернет, нарушающее сохранность данных.
Все эти действия финансируются за счёт народа!