Дорогая Мамочка / Mommie Dearest (Фрэнк Перри / Frank Perry) [1981, США, драма, биография, HDRip] MVO (Paramount channel)

Reply to topic
DL-List and Torrent activity
Size:  1.37 GB   |    Registered:  4 years   |    Completed:  0 times

Seeder not seen: Never

 
   
 
 
Author Message

star21 ®

Gender: Female

Longevity: 4 years 1 month

Posts: 551946

Location: Екатеринбург

Post 30-Nov-2015 05:50

[Quote]

Дорогая Мамочка / Mommie Dearest
Страна: США
Жанр: драма, биография
Год выпуска: 1981
Продолжительность: 02:08:51
Перевод: Профессиональный (многоголосый закадровый) Paramount channel
Cубтитры: нет
Режиссер: Фрэнк Перри / Frank Perry
В ролях: Фэй Данауэй, Дайана Скаруид, Стив Форрест, Ховард Да Сильва, Мара Хобел, Рутанья Алда, Гарри Гоз, Майкл Эдвардс, Жослин Брандо, Присцилла Пойнтер, и др.
Описание: Экранизация одноименного бестселлера Кристины Кроуфорд. В фильме показана драматичная история взросления юной Кристины в семье своей приёмной матери Джоан Кроуфорд, одной из известнейших голливудских актрис 40-х годов.

Доп. информация: Исходник -
Сэмпл: http://multi-up.com/1076245
Качество видео: HDRip
Формат видео: AVI
Видео: XviD / ~1321 kbps avg / 704x400 (16:9) / 23.976 fps / ~0,196 b/px
Аудио: AC3 Dolby Digital 2.0 / 2 ch / 192 kbps / 48 kHz

[imdb]http://www.imdb.com/title/tt0082766[/imdb]

MediaInfo

General
Complete name : Mommie Dearest [1981].avi
Format : AVI
Format/Info : Audio Video Interleave
File size : 1.37 GiB
Duration : 2h 8mn
Overall bit rate : 1 522 Kbps
Writing application : VirtualDubMod 1.5.10.3 | www.virtualdub-fr.org || (build 2550/release)
Writing library : VirtualDubMod build 2550/release
Video #0
ID : 0
Format : MPEG-4 Visual
Format profile : Advanced Simple@L5
Format settings, BVOP : 2
Format settings, QPel : No
Format settings, GMC : No warppoints
Format settings, Matrix : Default (MPEG)
Codec ID : XVID
Codec ID/Hint : XviD
Duration : 2h 8mn
Bit rate : 1 321 Kbps
Width : 704 pixels
Height : 400 pixels
Display aspect ratio : 16:9
Frame rate : 23.976 fps
Color space : YUV
Chroma subsampling : 4:2:0
Bit depth : 8 bits
Scan type : Progressive
Compression mode : Lossy
Bits/(Pixel*Frame) : 0.196
Stream size : 1.19 GiB (87%)
Writing library : XviD 65
Audio #1
ID : 1
Format : AC-3
Format/Info : Audio Coding 3
Mode extension : CM (complete main)
Format settings, Endianness : Big
Codec ID : 2000
Duration : 2h 8mn
Bit rate mode : Constant
Bit rate : 192 Kbps
Channel(s) : 2 channels
Channel positions : Front: L R
Sampling rate : 48.0 KHz
Compression mode : Lossy
Stream size : 177 MiB (13%)
Alignment : Split accross interleaves
Interleave, duration : 42 ms (1.00 video frame)
Interleave, preload duration : 500 ms

Скриншоты


Сравнение с конкурирующей раздачей от edich2

http://screenshotcomparison.com/comparison/151728/
Преимущества данной раздачи в отсутствии ТВ-логотипа, более адекватной цветопередаче, а также отсутствии "перескоков", которые в раздаче-конкуренте были вызваны вырезанием рекламных блоков.
Приятного просмотра!

To download the content you need:
1. Download and install torrent client [for Windows] or for mobile system
2. Click on [Download]
Attention.
If the test YOU are NOT a ROBOT - does not work, then You are using an outdated browser.
Install the current browser and click on [Download]
Security: torrent client is allowed by Kaspersky.

[en.asmlocator.ru].t4064.torrent 
Torrent: Registered [ 2015-11-30 05:45 ] · 627739699AAACC1A7F2832683EACE26840CDBF02

Download .torrent

Download

14 KB

Status: checked
Completed: 0 times
Size: 1.37 GB
terms.php
[Profile] [PM]
Display posts:    
Reply to topic

Current time is: 12-Dec 03:12

All times are UTC ± 0



You cannot post new topics in this forum
You cannot reply to topics in this forum
You cannot edit your posts in this forum
You cannot delete your posts in this forum
You cannot vote in polls in this forum
You cannot attach files in this forum
You can download files in this forum
Верим фактам, а не вранью Путина! Факт, что Правительство ведёт Россию к истреблению.
Так как численность населения падает, даже не смотря на приток эмигрантов!
Русская нация вымирает и вырождается, смешиваясь с эмигрантами!
Факт, что военных и граждан предприятий заставляют голосовать за партию Единая Россия и Путина
ПОД СТРАХОМ УВОЛЬНЕНИЯ!
Нам не нужно Правительство, блокирующее личную жизнь, интернет, нарушающее сохранность данных.
Все эти действия финансируются за счёт народа!