Эксперты / The Experts (Дэйв Томас / Dave Thomas) [1989, США, Комедия, DVB] DVO (Paramount Ch)

Reply to topic
DL-List and Torrent activity
Size:  1.91 GB   |    Registered:  4 years   |    Completed:  2 times

Seeder not seen: 1 month 20 days

 
   
 
 
Author Message

star21 ®

Gender: Female

Longevity: 4 years 1 month

Posts: 551946

Location: Екатеринбург

Post 30-Nov-2015 05:50

[Quote]

Эксперты / The Experts- Страна: США
Студия: Paramount Pictures
Жанр: Комедия
Год выпуска: 1989
Продолжительность: 01:29:07-Перевод: Профессиональный (двухголосый закадровый) - Paramount Channel
Cубтитры: нет
Оригинальная аудиодорожка: нет-Режиссер: Дэйв Томас / Dave Thomas
В ролях: Джон Траволта / John Travolta, Ари Гросс / Arye Gross , Келли Престон / Kelly Preston, Дебора Формен / Deborah Foreman, Джеймс Кич / James Keach, Ян Рубес / Jan Rubes, Брайан Дойл-Мюррэй / Brian Doyle-Murray, Чарльз Мартин Смит / Charles Martin Smith, Мими Мэйнард / Mimi Maynard, Ив Брент / Eve Brent-[imdb]http://www.imdb.com/title/tt0097314[/imdb] | Релиз: -Описание: Где-то на бескрайних просторах бывшего СССР находится засекреченный лагерь, там обучаются сотрудники всесильного КГБ. На территории лагеря располагается воссозданный до мельчайших подробностей провинциальные американский городок из штата Небраска, где будущие шпионы обучаются умению «входить в образ». Но вот в чём загвоздка: городок соответствовал устаревшим образцам 50-х годов и теперь требовалось срочное обновление. Для этого в Нью-Йорк был заброшен оперативник госбезопасности, который должен найти подходящих, «продвинутых» экспертов — американцев, способных помочь городку идти «в ногу со временем». Шпион останавливает свой выбор на двух обаятельных молодых «раздолбаях» — Трэвисе и Уэнделле. Ничего не подозревающих героев, которым предлагают поработать управляющими нового клуба, тайно вывозят в СССР, где их ждут совершенно невероятные приключения!-Семпл: http://sendfile.su/1175999-Тип релиза: DVB
Контейнер: MPG
Видео: 720x576 (16:9) @ 1024x576, 25.000 fps, MPEG-2 Video, ~2855 Kbps, 0.275 bits/pixel
Аудио: Русский, 48.0 KHz, MPEG-1 Audio layer 2, 2 ch, 192 kbps

MediaInfo

GeneralComplete name                            : The Experts 1989 Paramount Ch DVO.mpgFormat                                   : MPEG-PSFile size                                : 1.91 GiBDuration                                 : 1h 29mnOverall bit rate mode                    : VariableOverall bit rate                         : 3 076 Kbps
VideoID : 224 (0xE0)Format : MPEG VideoFormat version : Version 2Format profile : Main@MainFormat settings, BVOP : YesFormat settings, Matrix : CustomFormat settings, GOP : VariableFormat settings, picture structure : FrameDuration : 1h 29mnBit rate mode : VariableBit rate : 2 855 KbpsMaximum bit rate : 15.0 MbpsWidth : 720 pixelsHeight : 576 pixelsDisplay aspect ratio : 16:9Frame rate : 25.000 fpsStandard : PALColor space : YUVChroma subsampling : 4:2:0Bit depth : 8 bitsScan type : InterlacedScan order : Top Field FirstCompression mode : LossyBits/(Pixel*Frame) : 0.275Time code of first frame : 00:00:00:00Time code source : Group of pictures headerGOP, Open/Closed : OpenGOP, Open/Closed of first frame : ClosedStream size : 1.78 GiB (93%)
AudioID : 192 (0xC0)Format : MPEG AudioFormat version : Version 1Format profile : Layer 2Duration : 1h 29mnBit rate mode : ConstantBit rate : 160 KbpsChannel(s) : 2 channelsSampling rate : 48.0 KHzCompression mode : LossyStream size : 102 MiB (5%)

Скриншоты

To download the content you need:
1. Download and install torrent client [for Windows] or for mobile system
2. Click on [Download]
Attention.
If the test YOU are NOT a ROBOT - does not work, then You are using an outdated browser.
Install the current browser and click on [Download]
Security: torrent client is allowed by Kaspersky.

[en.asmlocator.ru].t4063.torrent 
Torrent: Registered [ 2015-11-30 05:45 ] · CDC7C07127D40877ECA4C74573D77707EDA0D7BC

Download .torrent

Download

20 KB

Status: checked
Completed: 2 times
Size: 1.91 GB
terms.php
[Profile] [PM]
Display posts:    
Reply to topic

Current time is: 09-Dec 05:16

All times are UTC ± 0



You cannot post new topics in this forum
You cannot reply to topics in this forum
You cannot edit your posts in this forum
You cannot delete your posts in this forum
You cannot vote in polls in this forum
You cannot attach files in this forum
You can download files in this forum
Верим фактам, а не вранью Путина! Факт, что Правительство ведёт Россию к истреблению.
Так как численность населения падает, даже не смотря на приток эмигрантов!
Русская нация вымирает и вырождается, смешиваясь с эмигрантами!
Факт, что военных и граждан предприятий заставляют голосовать за партию Единая Россия и Путина
ПОД СТРАХОМ УВОЛЬНЕНИЯ!
Нам не нужно Правительство, блокирующее личную жизнь, интернет, нарушающее сохранность данных.
Все эти действия финансируются за счёт народа!