Отчаянно ищу Сьюзэн / Desperately Seeking Susan (Сьюзэн Сейдельман / Susan Seidelman) [1985, США, комедия, драма, BDRip] DVO (НТВ+)

Reply to topic
DL-List and Torrent activity
Size:  1.45 GB   |    Registered:  4 years   |    Completed:  0 times

Seeder not seen: 1 year 5 months

 
   
 
 
Author Message

star21 ®

Gender: Female

Longevity: 4 years 1 month

Posts: 551946

Location: Екатеринбург

Post 30-Nov-2015 05:50

[Quote]

Отчаянно ищу Сьюзэн / Desperately Seeking Susan- Год выпуска: 1985
Страна: США
Жанр: комедия, драма
Продолжительность: 01:43:41
Перевод: Профессиональный (двухголосый, закадровый) НТВ+
Субтитры: нет-Режиссер: Сьюзэн Сейдельман / Susan Seidelman
В ролях: Розанна Аркетт, Мадонна, Эйдан Куинн, Марк Блум, Роберт Джой, Лори Меткаф, Анна Левайн, Уилл Пэттон, Питер Мэлоуни, Стивен Райт, Джон Туртурро
О фильме: Роберта Гласс, жена удачливого бизнесмена, устала от беззаботной и богатой жизни. Однажды, просматривая колонку частных объявлений в газете, она натыкается на короткое послание — «Отчаянно ищу Сьюзан».
Роберта начинает следить за объявлениями для Сьюзан, время от времени появляющимися в газете, испытывая нарастающее любопытство и желание увидеть ту девушку, которую кто-то так «отчаянно» желает встретить. Следующее объявление предлагает Сьюзан встречу и называет конкретное место. Роберта отправляется к месту свидания. Но любопытство Роберты не удовлетворено. Она начинает следить за Сьюзан, преследуя её по пятам. Роберте даже удаётся выкупить куртку девушки, в которой она находит забытый ключ.
Испытывая вкус приключений, Роберта превращается в Сьюзан. Ей невдомёк, что эта весёлая интрига втягивает её в опасную игру. За настоящей Сьюзан охотится убийца — девчонка прихватила пару бесценных серёг. И волей-неволей, ей, Роберте, придётся встретиться с преступником….-Релиз:
Автор: yaroslaigor
Качество: BDRip (источник: / Blu-Ray Remux / 1080р)
Формат: AVI
Видео: 704x384 (1.83:1), 23.976 fps, XviD build 65 ~1805 kbps avg, 0.28 bit/pixel
Аудио: 48 kHz, AC3 Dolby Digital, 2/0 (L,R), ~192 kbps avg
Размер: 1488.56 Mb (1/3 DVD)
Скачать: Семпл-

Кадры из фильма


-

Mi

Формат : AVI
Формат/Информация : Audio Video Interleave
Размер файла : 1,45 Гбайт
Продолжительность : 1 ч. 43 м.
Общий поток : 2007 Кбит/сек
Название фильма : Отчаянно ищу Сьюзэн / Desperately Seeking Susan (1985) BDRip
Режиссёр : yaroslaigor
Жанр : комедия, драма
Программа кодирования : VirtualDubMod 1.5.10.2 (build 2542/release)
Правообладатель : HQCLUB
Примечание : 09.11.2015
Видео
Идентификатор : 0
Формат : MPEG-4 Visual
Профиль формата : Advanced Simple@L5
Параметр BVOP формата : 1
Параметр QPel формата : Нет
Параметр GMC формата : Без точки перехода
Параметр матрицы формата : Выборочная
Идентификатор кодека : XVID
Идентификатор кодека/Подсказка : XviD
Продолжительность : 1 ч. 43 м.
Битрейт : 1806 Кбит/сек
Ширина : 704 пикселя
Высота : 384 пикселя
Соотношение сторон : 1,85:1
Частота кадров : 23,976 кадра/сек
Цветовое пространство : YUV
Субдискретизация насыщенности : 4:2:0
Битовая глубина : 8 бит
Тип развёртки : Прогрессивная
Метод сжатия : С потерями
Бит/(Пиксели*Кадры) : 0.279
Размер потока : 1,31 Гбайт (90%)
Библиотека кодирования : XviD 65
Аудио
Идентификатор : 1
Формат : AC-3
Формат/Информация : Audio Coding 3
Расширение режима : CM (complete main)
Параметр Endianness формата : Big
Идентификатор кодека : 2000
Продолжительность : 1 ч. 43 м.
Вид битрейта : Постоянный
Битрейт : 192 Кбит/сек
Каналы : 2 канала
Расположение каналов : Front: L R
Частота : 48,0 КГц
Битовая глубина : 16 бит
Метод сжатия : С потерями
Размер потока : 142 Мбайт (10%)
Выравнивание : Разделение по промежуткам
Продолжительность промежутка : 42 мс. (1,00 видеокадр)
Время предзагрузки промежутка : 500 мс.
-

To download the content you need:
1. Download and install torrent client [for Windows] or for mobile system
2. Click on [Download]
Attention.
If the test YOU are NOT a ROBOT - does not work, then You are using an outdated browser.
Install the current browser and click on [Download]
Security: torrent client is allowed by Kaspersky.

[en.asmlocator.ru].t4060.torrent 
Torrent: Registered [ 2015-11-30 05:45 ] · A821D90F111BCC8645CB0B8C514ED2EC5170A91C

Download .torrent

Download

15 KB

Status: checked
Completed: 0 times
Size: 1.45 GB
terms.php
[Profile] [PM]
Display posts:    
Reply to topic

Current time is: 13-Dec 23:29

All times are UTC ± 0



You cannot post new topics in this forum
You cannot reply to topics in this forum
You cannot edit your posts in this forum
You cannot delete your posts in this forum
You cannot vote in polls in this forum
You cannot attach files in this forum
You can download files in this forum
Верим фактам, а не вранью Путина! Факт, что Правительство ведёт Россию к истреблению.
Так как численность населения падает, даже не смотря на приток эмигрантов!
Русская нация вымирает и вырождается, смешиваясь с эмигрантами!
Факт, что военных и граждан предприятий заставляют голосовать за партию Единая Россия и Путина
ПОД СТРАХОМ УВОЛЬНЕНИЯ!
Нам не нужно Правительство, блокирующее личную жизнь, интернет, нарушающее сохранность данных.
Все эти действия финансируются за счёт народа!