Изо всех сил / Over the Top (Менахем Голан / Menahem Golan) [1987, США, боевик, драма, спорт, BDRip] AVO Андрей Гаврилов (Ранний) + AVO Андрей Гаврилов (Поздний) + Original Eng

Reply to topic
DL-List and Torrent activity
Size:  2.17 GB   |    Registered:  4 years 7 months   |    Completed:  0 times

Seeder not seen: 2 years 4 months

 
   
 
 
Author Message

star21 ®

Gender: Female

Longevity: 4 years 8 months

Posts: 551945

Location: Екатеринбург

Post 30-Nov-2015 05:50

[Quote]

Изо всех сил / Over the Top
"Рокки, Рэмбо, Кобра, а теперь Хоук в величайшей схватке его жизни"
Страна: США
Жанр: боевик, драма, спорт
Год выпуска: 1987
Продолжительность: 01:33:35
Перевод: Авторский (одноголосый закадровый) Андрей Гаврилов - Ранний
Перевод 2: Авторский (одноголосый закадровый) Андрей Гаврилов - Поздний
Cубтитры: нет
Оригинальная аудиодорожка: английский
Режиссер: Менахем Голан / Menahem Golan
В ролях: Сильвестр Сталлоне, Роберт Лоджа, Сьюзан Блейкли, Рик Цумвальт, Дэвид Менденхолл, Крис МакКарти, Терри Фанк, Боб Битти, Аллан Граф, Мэджик Шварц
Описание: Водитель грузовика Линкольн Хоук, по прозвищу Ястреб, едет в Лас-Вегас на чемпионат мира по армрестлингу. У него много забот: надо встретиться и поговорить с бывшей женой, умирающей от странной болезни сердца; проведать, сломав ворота и разобравшись с телохранителями, любимого тестя и любой ценой заполучить сына, брошенного 10 лет назад. Сын, в начале принявший отца в штыки, станет опорой Ястреба и поможет ему выиграть чемпионат.
Доп. информация: Дорожка с А. Гавриловым синхронизирована, ремастерирована, преобразована в СТЕРЕО и наложена ale_x2008 при помощи Adobe Audition, Sony Vegas и VirtualDubMod.
За оцифрованную с VHS дорожку благодарим - d_rocker

Дорожка Андрей Гаврилов - Ранний - лучше по качеству чем те, что на трекере.
Релиз
Сэмпл: https://yadi.sk/i/RyDvy7d3keUwe
Качество видео: BDRip by HELLYWOOD [(источник: /Blu-ray Remux/ 1080p)]
Формат видео: AVI
Видео: XviD MPEG-4, 720x304 (2.37:1), 23.976 fps, 2209 kbps avg, 0.42 bit/pixel
Аудио: AC3 Dolby Digital, 48000Hz, 2/0 (L,R) ch (stereo), 192.00 kbps avg Ранний
Аудио 2: 48 kHz, AC3 Dolby Digital, 3/2 (L,C,R,l,r) + LFE ch, ~448 kbps Поздний
Аудио 3: 48 kHz, AC3 Dolby Digital, 3/2 (L,C,R,l,r) + LFE ch, ~448 kbps Eng

MediaInfo

Изо всех сил - Over the Top BDRip (3 дорожки) [by Edich2] FIX.avi
Format : AVI
Format/Info : Audio Video Interleave
Format profile : OpenDML
File size : 2.17 GiB
Duration : 1h 33mn
Overall bit rate : 3 321 Kbps
Video
ID : 0
Format : MPEG-4 Visual
Format profile : Advanced Simple@L5
Format settings, BVOP : 1
Format settings, QPel : No
Format settings, GMC : No warppoints
Format settings, Matrix : Custom
Codec ID : XVID
Codec ID/Hint : XviD
Duration : 1h 33mn
Bit rate : 2 209 Kbps
Width : 720 pixels
Height : 304 pixels
Display aspect ratio : 2.35:1
Frame rate : 23.976 fps
Color space : YUV
Chroma subsampling : 4:2:0
Bit depth : 8 bits
Scan type : Progressive
Compression mode : Lossy
Bits/(Pixel*Frame) : 0.421
Stream size : 1.44 GiB (67%)
Writing library : XviD 1.2.1 (UTC 2008-12-04)
Audio #1
ID : 1
Format : AC-3
Format/Info : Audio Coding 3
Mode extension : CM (complete main)
Format settings, Endianness : Big
Codec ID : 2000
Duration : 1h 33mn
Bit rate mode : Constant
Bit rate : 192 Kbps
Channel(s) : 2 channels
Channel positions : Front: L R
Sampling rate : 48.0 KHz
Bit depth : 16 bits
Compression mode : Lossy
Stream size : 129 MiB (6%)
Alignment : Split accross interleaves
Interleave, duration : 42 ms (1.00 video frame)
Interleave, preload duration : 500 ms
Audio #2
ID : 2
Format : AC-3
Format/Info : Audio Coding 3
Mode extension : CM (complete main)
Format settings, Endianness : Big
Codec ID : 2000
Duration : 1h 33mn
Bit rate mode : Constant
Bit rate : 448 Kbps
Channel(s) : 6 channels
Channel positions : Front: L C R, Side: L R, LFE
Sampling rate : 48.0 KHz
Bit depth : 16 bits
Compression mode : Lossy
Stream size : 299 MiB (13%)
Alignment : Split accross interleaves
Interleave, duration : 42 ms (1.00 video frame)
Interleave, preload duration : 500 ms
Audio #3
ID : 3
Format : AC-3
Format/Info : Audio Coding 3
Mode extension : CM (complete main)
Format settings, Endianness : Big
Codec ID : 2000
Duration : 1h 33mn
Bit rate mode : Constant
Bit rate : 448 Kbps
Channel(s) : 6 channels
Channel positions : Front: L C R, Side: L R, LFE
Sampling rate : 48.0 KHz
Bit depth : 16 bits
Compression mode : Lossy
Stream size : 300 MiB (13%)
Alignment : Split accross interleaves
Interleave, duration : 42 ms (1.00 video frame)
Interleave, preload duration : 500 ms

Скриншоты


To download the content you need:
1. Download and install torrent client [for Windows] or for mobile system
2. Click on [Download]
Attention.
If the test YOU are NOT a ROBOT - does not work, then You are using an outdated browser.
Install the current browser and click on [Download]

Do not work with Yandex browser. Uploading files to them is erroneous.
Security: torrent client is allowed by Kaspersky.

[en.asmlocator.ru].t4059.torrent 
Torrent: Registered [ 2015-11-30 05:45 ] · CAF3E46C18ED2E907A396389410659AEFA46598B

Download .torrent

Download

11 KB

Status: checked
Completed: 0 times
Size: 2.17 GB
terms.php
[Profile] [PM]
Display posts:    
Reply to topic

Current time is: 10-Jul 12:14

All times are UTC ± 0



You cannot post new topics in this forum
You cannot reply to topics in this forum
You cannot edit your posts in this forum
You cannot delete your posts in this forum
You cannot vote in polls in this forum
You cannot attach files in this forum
You can download files in this forum
Верим фактам, а не вранью Путина! Факт, что Правительство ведёт Россию к истреблению.
Так как численность населения падает, даже не смотря на приток эмигрантов!
Русская нация вымирает и вырождается, смешиваясь с эмигрантами!
Факт, что военных и граждан предприятий заставляют голосовать за партию Единая Россия и Путина
ПОД СТРАХОМ УВОЛЬНЕНИЯ!
Нам не нужно Правительство, блокирующее личную жизнь, интернет, нарушающее сохранность данных.
Все эти действия финансируются за счёт народа!