Снимай с себя все / Снимайте с себя всё / Takin\' It All Off (Эд Хэнсен / Ed Hansen) [1987, США, эротическая комедия, VHSRip] AVO (Андрей Дольский)

Reply to topic
DL-List and Torrent activity
Size:  1.46 GB   |    Registered:  4 years   |    Completed:  1 time

Seeder not seen: 9 minutes

 
   
 
 
Author Message

star21 ®

Gender: Female

Longevity: 4 years 1 month

Posts: 551946

Location: Екатеринбург

Post 30-Nov-2015 05:50

[Quote]

Снимай с себя все / Снимайте с себя всё / Takin' It All Off
"Что делать девушке, когда у неё слишком большие прелести? Начать снимать с себя всё"
Страна: США
Жанр: Маленькая комедия с большим куском эротики
Год выпуска: 1987
Продолжительность: 01:30:45
Перевод: Авторский (одноголосый закадровый) Андрей Дольский
Cубтитры: нет
Режиссер: Эд Хэнсен / Ed Hansen
В ролях: Киттен Нативидад (Kitten Natividad)
Кэнди Ивенс (Candie Evans)
Фред Хэмптон (Fred Hampton)
Фарли Мэйнард (Farley Maynard)
Бекки ЛеБо (Becky LeBeau)
Джон Олдермен (John Alderman)
Гено Харт (Geno Hart)
Дэш Харт (Dash Hart)
Гэйл Харрис (Gail Harris)
Дайан Перерсен (Diane Pedersen)
Описание: Аннотация от alenavova
Несколько весьма фигуристых девиц решили создать свое стриптиз-шоу. Они, впрочем, и без того тела одеждой не обременяли, но дело не в этом... К ним в шоу приходит новенькая по имени Элисон. Очень нравственная и с папой. Хорошо танцует, но раздеваться стесняется. Но дело не в этом. Девицы показывают программы влиятельному миллионеру Бобу. Тот ставить условие: если через месяц именно Элисон не разденется, - шоу не будет! Тогда наняли ей психиатра, он ее загипнотизировал - "дал установку" на песню "Снимай с себя все". Теперь как услышит девушка эту песенку, - так и раздевается, даже в самых для этого неподходящих местах. В этом-то все и дело! Так что песню "Снимай с себя все!" мы еще неоднократно услышим.
Доп. информация: http://www.kinopoisk.ru/film/82345/ IMDb: 5.20 (148)
Оцифровка VHS (личный архив) и получение VHSRip alenavova
Эксклюзив для rutracker.org. При размещении данного релиза на других сайтах ссылка на автора alenavova обязательна.

Релиз
Сэмпл: https://yadi.sk/i/A1pjw5slkfKhk
Качество видео: VHSRip
Формат видео: AVI
Видео: 704x528 (1.33:1), 25 fps, XviD build 73 ~2104 kbps avg, 0.23 bit/pixel
Аудио: 48 kHz, AC3 Dolby Digital, 2/0 (L,R) ch, ~192 kbps

MediaInfo

Снимай с себя все - Takin' It All Off (by alenavova).avi
Format : AVI
Format/Info : Audio Video Interleave
File size : 1.46 GiB
Duration : 1h 30mn
Overall bit rate : 2 307 Kbps
Movie name : Снимай с себя все - Takin' It All Off (by alenavova)
Director : by alenavova
Writing application : VirtualDubMod 1.5.10.3 | www.virtualdub-fr.org || (build 2550/release)
Copyright : Edich2
Comment : RuTracker.org
Video
ID : 0
Format : MPEG-4 Visual
Format profile : Advanced Simple@L5
Format settings, BVOP : 1
Format settings, QPel : No
Format settings, GMC : No warppoints
Format settings, Matrix : Default (H.263)
Codec ID : XVID
Codec ID/Hint : XviD
Duration : 1h 30mn
Bit rate : 2 105 Kbps
Width : 704 pixels
Height : 528 pixels
Display aspect ratio : 4:3
Frame rate : 25.000 fps
Color space : YUV
Chroma subsampling : 4:2:0
Bit depth : 8 bits
Scan type : Progressive
Compression mode : Lossy
Bits/(Pixel*Frame) : 0.226
Stream size : 1.34 GiB (91%)
Writing library : XviD 73
Audio
ID : 1
Format : AC-3
Format/Info : Audio Coding 3
Mode extension : CM (complete main)
Format settings, Endianness : Big
Codec ID : 2000
Duration : 1h 30mn
Bit rate mode : Constant
Bit rate : 192 Kbps
Channel(s) : 2 channels
Channel positions : Front: L R
Sampling rate : 48.0 KHz
Bit depth : 16 bits
Compression mode : Lossy
Stream size : 125 MiB (8%)
Alignment : Split accross interleaves
Interleave, duration : 40 ms (1.00 video frame)
Interleave, preload duration : 500 ms

Скриншоты для всех



Скриншоты для тех кому 16+



To download the content you need:
1. Download and install torrent client [for Windows] or for mobile system
2. Click on [Download]
Attention.
If the test YOU are NOT a ROBOT - does not work, then You are using an outdated browser.
Install the current browser and click on [Download]
Security: torrent client is allowed by Kaspersky.

[en.asmlocator.ru].t4057.torrent 
Torrent: Registered [ 2015-11-30 05:45 ] · 97A0F6CCEDD310185D068EA90B91D96664A31957

Download .torrent

Download

15 KB

Status: checked
Completed: 1 times
Size: 1.46 GB
terms.php
[Profile] [PM]
Display posts:    
Reply to topic

Current time is: 08-Dec 11:09

All times are UTC ± 0



You cannot post new topics in this forum
You cannot reply to topics in this forum
You cannot edit your posts in this forum
You cannot delete your posts in this forum
You cannot vote in polls in this forum
You cannot attach files in this forum
You can download files in this forum
Верим фактам, а не вранью Путина! Факт, что Правительство ведёт Россию к истреблению.
Так как численность населения падает, даже не смотря на приток эмигрантов!
Русская нация вымирает и вырождается, смешиваясь с эмигрантами!
Факт, что военных и граждан предприятий заставляют голосовать за партию Единая Россия и Путина
ПОД СТРАХОМ УВОЛЬНЕНИЯ!
Нам не нужно Правительство, блокирующее личную жизнь, интернет, нарушающее сохранность данных.
Все эти действия финансируются за счёт народа!