Ужас с небес / Terror Out of the Sky (Ли Х. Кацин / Lee H. Katzin) [1978, США, ужас, DVDRip] AVO (Дольский) + Original Eng

Reply to topic
DL-List and Torrent activity
Size:  983 MB   |    Registered:  4 years   |    Completed:  0 times

Seeder not seen: 1 year 8 months

 
   
 
 
Author Message

star21 ®

Gender: Female

Longevity: 4 years 1 month

Posts: 551946

Location: Екатеринбург

Post 30-Nov-2015 05:50

[Quote]

Ужас с небес / Terror Out of the Sky
Страна: США
Жанр: ужас
Год выпуска: 1978
Продолжительность: 01:33:51
Перевод: Авторский (одноголосый закадровый) Дольский
Cубтитры: нет
Оригинальная аудиодорожка: английский
Режиссер: Ли Х. Кацин / Lee H. Katzin
В ролях: Ефрем Цимбалист мл., Дэн Хэггерти, Това Фелдшух, Лонни Чэпмен, Айк Айсенманн
Описание: Разбушевавшиеся пчелы из Африки вторгаются на территорию США и начинают наводить панику на местное население небольшого городка. На пути их следования оказывается группа участников марша протеста и школьный автобус с детьми. Борьбу с озверевшими пчелами возглавляют ученая Дженни Деверо со своим другом Ником и местным профессором биологии Дэвидом Мартином.
Сэмпл: http://multi-up.com/1076621
Качество видео: DVDRip
Формат видео: AVI
Видео: 576x432 (1.33:1),23.976 fps, XviD build 47, 1216 kbps avg
Аудио: 48 kHz, MPEG Layer 3, 2/0 (L,R) ch, ~128 kbps
Аудио 2: 48 kHz, MPEG Layer 3, 2/0 (L,R) ch, ~105 kbps

MediaInfo

Общее
Полное имя : C:\для выставки\Terror Out of the Sky.avi
Формат : AVI
Формат/Информация : Audio Video Interleave
Размер файла : 983 Мбайт
Продолжительность : 1 ч. 33 м.
Режим общего битрейта : Переменный
Общий поток : 1464 Кбит/сек
Программа кодирования : VirtualDubMod 1.5.10.2 (build 2542/release)
Библиотека кодирования : VirtualDubMod build 2542/release
Видео
Идентификатор : 0
Формат : MPEG-4 Visual
Профиль формата : Advanced Simple@L5
Параметр BVOP формата : 1
Параметр QPel формата : Нет
Параметр GMC формата : Без точки перехода
Параметр матрицы формата : Выборочная
Идентификатор кодека : XVID
Идентификатор кодека/Подсказка : XviD
Продолжительность : 1 ч. 33 м.
Битрейт : 1217 Кбит/сек
Ширина : 576 пикселей
Высота : 432 пикселя
Соотношение сторон : 4:3
Частота кадров : 23,976 кадра/сек
Цветовое пространство : YUV
Субдискретизация насыщенности : 4:2:0
Битовая глубина : 8 бит
Тип развёртки : Прогрессивная
Метод сжатия : С потерями
Бит/(Пиксели*Кадры) : 0.204
Размер потока : 817 Мбайт (83%)
Библиотека кодирования : XviD 1.2.0.dev47 (UTC 2006-11-01)
Аудио #1
Идентификатор : 1
Формат : MPEG Audio
Версия формата : Version 1
Профиль формата : Layer 3
Режим : Joint stereo
Расширение режима : MS Stereo
Идентификатор кодека : 55
Идентификатор кодека/Подсказка : MP3
Продолжительность : 1 ч. 33 м.
Вид битрейта : Постоянный
Битрейт : 128 Кбит/сек
Каналы : 2 канала
Частота : 48,0 КГц
Метод сжатия : С потерями
Размер потока : 85,9 Мбайт (9%)
Выравнивание : Соединение по промежуткам
Продолжительность промежутка : 42 мс. (1,00 видеокадр)
Время предзагрузки промежутка : 504 мс.
Аудио #2
Идентификатор : 2
Формат : MPEG Audio
Версия формата : Version 1
Профиль формата : Layer 3
Режим : Joint stereo
Расширение режима : MS Stereo
Идентификатор кодека : 55
Идентификатор кодека/Подсказка : MP3
Продолжительность : 1 ч. 33 м.
Вид битрейта : Переменный
Битрейт : 105 Кбит/сек
Номинальный битрейт : 128 Кбит/сек
Каналы : 2 канала
Частота : 48,0 КГц
Метод сжатия : С потерями
Размер потока : 70,8 Мбайт (7%)
Выравнивание : Разделение по промежуткам
Продолжительность промежутка : 42 мс. (1,00 видеокадр)
Время предзагрузки промежутка : 500 мс.
Библиотека кодирования : LAME3.97
Настройки программы : -m j -V 4 -q 2 -lowpass 17 --abr 128

Скриншот c названием фильма

Скриншоты

To download the content you need:
1. Download and install torrent client [for Windows] or for mobile system
2. Click on [Download]
Attention.
If the test YOU are NOT a ROBOT - does not work, then You are using an outdated browser.
Install the current browser and click on [Download]
Security: torrent client is allowed by Kaspersky.

[en.asmlocator.ru].t4055.torrent 
Torrent: Registered [ 2015-11-30 05:45 ] · B2749CA18B1D5A22977706ABDDF2C35A8997A0A0

Download .torrent

Download

20 KB

Status: checked
Completed: 0 times
Size: 983 MB
terms.php
[Profile] [PM]
Display posts:    
Reply to topic

Current time is: 12-Dec 02:48

All times are UTC ± 0



You cannot post new topics in this forum
You cannot reply to topics in this forum
You cannot edit your posts in this forum
You cannot delete your posts in this forum
You cannot vote in polls in this forum
You cannot attach files in this forum
You can download files in this forum
Верим фактам, а не вранью Путина! Факт, что Правительство ведёт Россию к истреблению.
Так как численность населения падает, даже не смотря на приток эмигрантов!
Русская нация вымирает и вырождается, смешиваясь с эмигрантами!
Факт, что военных и граждан предприятий заставляют голосовать за партию Единая Россия и Путина
ПОД СТРАХОМ УВОЛЬНЕНИЯ!
Нам не нужно Правительство, блокирующее личную жизнь, интернет, нарушающее сохранность данных.
Все эти действия финансируются за счёт народа!