Джеймс Бонд 007: Никогда не говори никогда / Never Say Never Again (Ирвин Кершнер / Irvin Kershner) [1983, Великобритания, США, Германия (ФРГ), боевик, триллер, приключения, BDRip] MVO (ОРТ / Первый канал)

Reply to topic
DL-List and Torrent activity
Size:  1.94 GB   |    Registered:  4 years   |    Completed:  0 times

Seeder not seen: Never

 
   
 
 
Author Message

star21 ®

Gender: Female

Longevity: 4 years 1 month

Posts: 551946

Location: Екатеринбург

Post 30-Nov-2015 05:50

[Quote]

Никогда не говори никогда / Never Say Never Again

Год выпуска: 1983
Страна: Великобритания, США, Германия, Франция
Жанр: боевик, триллер, приключения
Продолжительность: 02:14:06
Перевод: Профессиональный (многоголосый закадровый) ОРТ/Первый канал
Текст читали: Олег Куценко, Ольга Гаспарова, Андрей Казанцев, Андрей Мартынов
Доп. информация о переводе: Собственная запись с телеканала Че, присутствует пара вставок с кассеты начала 2000-ых, перевод и голоса те же. Данного перевода в сети нет.
Cубтитры: нет-Режиссер:
Ирвин Кершнер / Irvin Kershner-В ролях:
Шон Коннери (Джеймс Бонд), Клаус Мария Брандауэр (Макс Ларго), Макс фон Сюдов (Блофельд), Барбара Каррера (Фатима Бланш), Ким Бейсингер (Домино Петтачи), Берни Кейси (Феликс Лейтер), Алек МакКоуэн (Q), Эдвард Фокс (M), Памела Сейлем (Манипенни), Роуэн Эткинсон (Найджел Смолл-Фоссет)-Описание:
Используя непостижимый набор оружия, агент 007 собственноручно стирает с лица земли армию врагов Ее Величества. Но когда прелестная пленница втыкает нож в ребра 007, босс супершпиона М решает, что настало время его лучшему агенту заняться оттачиванием своего смертельного мастерства. И вот Джеймс Бонд отправляется на лечебный курорт, а фильм «Никогда не говори никогда» готов вновь поражать ваше воображение трюками.-Сэмпл-
-
-Качество видео: BDRip
Формат видео: AVI-Видео: Xvid, 720x304, 23.976fps, 1868kbps
Аудио: 48 kHz, AC3 Dolby Digital, 2/0 (L,R) ch, ~192.00 kbps avg
-

Скриншот с названием фильма

Скриншоты

отчет MediaInfo

General
Complete name : D:\Кино\Никогда не говори никогда.avi
Format : AVI
Format/Info : Audio Video Interleave
File size : 1.94 GiB
Duration : 2h 14mn
Overall bit rate : 2 070 Kbps
Writing application : VirtualDubMod 1.5.10.2 (build 2540/release)
Writing library : VirtualDubMod build 2540/release
Video
ID : 0
Format : MPEG-4 Visual
Format profile : Advanced Simple@L5
Format settings, BVOP : 1
Format settings, QPel : No
Format settings, GMC : No warppoints
Format settings, Matrix : Custom
Codec ID : XVID
Codec ID/Hint : XviD
Duration : 2h 14mn
Bit rate : 1 869 Kbps
Width : 720 pixels
Height : 304 pixels
Display aspect ratio : 2.35:1
Frame rate : 23.976 fps
Color space : YUV
Chroma subsampling : 4:2:0
Bit depth : 8 bits
Scan type : Progressive
Compression mode : Lossy
Bits/(Pixel*Frame) : 0.356
Stream size : 1.75 GiB (90%)
Writing library : XviD 62
Audio
ID : 1
Format : AC-3
Format/Info : Audio Coding 3
Mode extension : CM (complete main)
Format settings, Endianness : Big
Codec ID : 2000
Duration : 2h 14mn
Bit rate mode : Constant
Bit rate : 192 Kbps
Channel(s) : 2 channels
Channel positions : Front: L R
Sampling rate : 48.0 KHz
Compression mode : Lossy
Stream size : 184 MiB (9%)
Alignment : Split accross interleaves
Interleave, duration : 42 ms (1.00 video frame)
Interleave, preload duration : 500 ms

To download the content you need:
1. Download and install torrent client [for Windows] or for mobile system
2. Click on [Download]
Attention.
If the test YOU are NOT a ROBOT - does not work, then You are using an outdated browser.
Install the current browser and click on [Download]
Security: torrent client is allowed by Kaspersky.

[en.asmlocator.ru].t4054.torrent 
Torrent: Registered [ 2015-11-30 05:45 ] · 28646AD35A0C96C5DB23E8C7CFDDA866040A4F9F

Download .torrent

Download

20 KB

Status: checked
Completed: 0 times
Size: 1.94 GB
terms.php
[Profile] [PM]
Display posts:    
Reply to topic

Current time is: 09-Dec 04:59

All times are UTC ± 0



You cannot post new topics in this forum
You cannot reply to topics in this forum
You cannot edit your posts in this forum
You cannot delete your posts in this forum
You cannot vote in polls in this forum
You cannot attach files in this forum
You can download files in this forum
Верим фактам, а не вранью Путина! Факт, что Правительство ведёт Россию к истреблению.
Так как численность населения падает, даже не смотря на приток эмигрантов!
Русская нация вымирает и вырождается, смешиваясь с эмигрантами!
Факт, что военных и граждан предприятий заставляют голосовать за партию Единая Россия и Путина
ПОД СТРАХОМ УВОЛЬНЕНИЯ!
Нам не нужно Правительство, блокирующее личную жизнь, интернет, нарушающее сохранность данных.
Все эти действия финансируются за счёт народа!