Чужой / Alien (Ридли Скотт / Ridley Scott) [1979, США, Великобритания, Фантастика, ужасы, HDRip] [(Режиссёрская версия/Director’s cut)] AVO (Гаврилов)

Reply to topic
DL-List and Torrent activity
Size:  1.84 GB   |    Registered:  4 years   |    Completed:  0 times

Seeder not seen: 1 year 8 months

 
   
 
 
Author Message

star21 ®

Gender: Female

Longevity: 4 years 1 month

Posts: 551946

Location: Екатеринбург

Post 30-Nov-2015 05:50

[Quote]

Чужой / Alien / (Режиссёрская версия/Director’s cut)
Страна: США, Великобритания
Жанр: Фантастика, ужасы
Год выпуска: 1979
Продолжительность: 01:55:49
Перевод: Авторский (одноголосый закадровый) Гаврилов
Cубтитры: нет
Оригинальная аудиодорожка: нет
Режиссер: Ридли Скотт / Ridley Scott
В ролях: Сигурни Уивер (Ripley,), Том Скеррит (Dallas), Вероника Картрайт (Lambert), Гарри Дин Стэнтон (Brett), Джон Хёрт (Kane), Иэн Холм (Ash), Яфет Котто (Parker), Боладжи Бадеджо (Alien), Хелен Хортон (Mother, озвучка), Эдди Пауэлл (Alien, в титрах не указан)
Описание:В далеком будущем возвращающийся на Землю грузовой космический корабль перехватывает исходящий с неизвестной планеты неопознанный сигнал. Экипаж принимает решение совершить посадку и разобраться, в чем дело. Оказавшись на планете, астронавты повсюду обнаруживают неопознанные предметы, по виду напоминающие гигантские коконы…
Сэмпл: http://sendfile.su/1176927
Качество видео: HDRip
Формат видео: AVI
Видео: 720x304 (2.35:1), 23.976 fps, XviD build, 1811 kbps avg, 0.34 bit/pixel
Аудио: 48 kHz, AC3 Dolby Digital, 2/0 (L,R) ch, ~448.00 kbps avg

MediaInfo

General
Complete name : K:\ФИЛЬМЫ\Антологии\Гаврилов\1979 Чужой.avi
Format : AVI
Format/Info : Audio Video Interleave
Format profile : OpenDML
File size : 1.84 GiB
Duration : 1h 55mn
Overall bit rate : 2 270 Kbps
Writing application : Lavf55.19.104
Video
ID : 0
Format : xvid
Codec ID : xvid
Duration : 1h 55mn
Bit rate : 1 811 Kbps
Width : 720 pixels
Height : 304 pixels
Display aspect ratio : 2.35:1
Frame rate : 23.976 fps
Bits/(Pixel*Frame) : 0.345
Stream size : 1.47 GiB (80%)
Audio
ID : 1
Format : AC-3
Format/Info : Audio Coding 3
Mode extension : CM (complete main)
Format settings, Endianness : Big
Codec ID : 2000
Duration : 1h 55mn
Bit rate mode : Constant
Bit rate : 448 Kbps
Channel(s) : 2 channels
Channel positions : Front: L R
Sampling rate : 48.0 KHz
Bit depth : 16 bits
Compression mode : Lossy
Stream size : 371 MiB (20%)
Alignment : Aligned on interleaves
Interleave, duration : 32 ms (0.77 video frame)

Скриншот c названием фильма

Скриншоты




To download the content you need:
1. Download and install torrent client [for Windows] or for mobile system
2. Click on [Download]
Attention.
If the test YOU are NOT a ROBOT - does not work, then You are using an outdated browser.
Install the current browser and click on [Download]
Security: torrent client is allowed by Kaspersky.

[en.asmlocator.ru].t4052.torrent 
Torrent: Registered [ 2015-11-30 05:45 ] · 8D0394302F4E3EEF7052C5379A101635CC1D1887

Download .torrent

Download

19 KB

Status: checked
Completed: 0 times
Size: 1.84 GB
terms.php
[Profile] [PM]
Display posts:    
Reply to topic

Current time is: 05-Dec 15:47

All times are UTC ± 0



You cannot post new topics in this forum
You cannot reply to topics in this forum
You cannot edit your posts in this forum
You cannot delete your posts in this forum
You cannot vote in polls in this forum
You cannot attach files in this forum
You can download files in this forum
Верим фактам, а не вранью Путина! Факт, что Правительство ведёт Россию к истреблению.
Так как численность населения падает, даже не смотря на приток эмигрантов!
Русская нация вымирает и вырождается, смешиваясь с эмигрантами!
Факт, что военных и граждан предприятий заставляют голосовать за партию Единая Россия и Путина
ПОД СТРАХОМ УВОЛЬНЕНИЯ!
Нам не нужно Правительство, блокирующее личную жизнь, интернет, нарушающее сохранность данных.
Все эти действия финансируются за счёт народа!