Шалопай / Mischief (Мэл Дэмски / Mel Damski) [1985, США, мелодрама, комедия, DVDRip-AVC] DVO (НТВ+) + Original Eng

Reply to topic
DL-List and Torrent activity
Size:  2.07 GB   |    Registered:  4 years   |    Completed:  0 times

Seeder not seen: Never

 
   
 
 
Author Message

star21 ®

Gender: Female

Longevity: 4 years 1 month

Posts: 551946

Location: Екатеринбург

Post 30-Nov-2015 05:50

[Quote]

Шалопай / Mischief
Страна: США
Жанр: мелодрама, комедия
Год выпуска: 1985
Продолжительность: 01:36:36
Перевод: Профессиональный (двухголосый закадровый) НТВ+
Cубтитры: нет
Оригинальная аудиодорожка: английский
Режиссер: Мэл Дэмски / Mel Damski
В ролях: Даг МакКиэн, Катрин Мэри Стюарт, Келли Престон, Крис Нэш, Д.В. Браун, Джейми Герц, Маргарет Блай, Грэм Джарвис, Терри О’Куинн, Даррен Юинг...
Описание: Неудачи Джонатана в общении с девушками отступают, когда он в последнем классе школы знакомится с Джином. Поскольку Джин пользуется успехом у девушек, он решает преподать Джонатану несколько уроков по общению с прекрасным полом. Но Джин вообще-то предпочёл бы жить в любви и согласии только с одной девушкой — Банни.
Доп. информация: К звуку был применен фильтр для устранения треска, сэмпл для сравнения, 1 дорожка до чистки, 2 после.
Сэмпл: http://multi-up.com/1076950
Качество видео: DVDRip-AVC
Формат видео: MKV
Видео: 720x466 (16:9) @ 854x466, 23.976 fps, AVC, ~2430 Kbps, 0.302 bits/pixel
Аудио 1: Russian, 48.0 KHz, AC3, 2 ch, 192 Kbps - НТВ+
Аудио 2: English, 48.0 KHz, AC3, 6 ch, 448 Kbps

Log

avs4x264.exe: -L x264_64.exe --pass 2 --bitrate 2430 --preset medium --ref 10 --deblock -1:-1 --merange 32 --bframes 10 --direct auto --b-adapt 2 --trellis 2 --no-fast-pskip --psy-rd 1.00:0.10 --partitions all --subme 10 --me umh --rc-lookahead 50 --sar 32:27 --stats
raw [info]: 720x466p 32:27 @ 24000/1001 fps (cfr)
x264 [info]: using SAR=32/27
x264 [info]: using cpu capabilities: MMX2 SSE2Fast LZCNT
x264 [info]: profile High, level 3.1
x264 [info]: frame I:1092 Avg QP:16.56 size: 52732
x264 [info]: frame P:27990 Avg QP:19.08 size: 28532
x264 [info]: frame B:109892 Avg QP:22.01 size: 8224
x264 [info]: consecutive B-frames: 1.5% 1.7% 10.5% 7.5% 6.6% 68.7% 1.9% 0.4% 0.6% 0.3% 0.4%
x264 [info]: mb I I16..4: 2.7% 91.0% 6.3%
x264 [info]: mb P I16..4: 0.5% 33.4% 1.2% P16..4: 26.0% 19.3% 15.5% 0.8% 0.3% skip: 3.0%
x264 [info]: mb B I16..4: 0.1% 6.9% 0.1% B16..8: 32.0% 17.0% 4.4% direct: 7.8% skip:31.6% L0:36.9% L1:35.2% BI:27.9%
x264 [info]: 8x8 transform intra:95.5% inter:70.1%
x264 [info]: direct mvs spatial:97.8% temporal:2.2%
x264 [info]: coded y,uvDC,uvAC intra: 92.7% 70.8% 31.4% inter: 32.5% 24.7% 3.1%
x264 [info]: i16 v,h,dc,p: 31% 16% 14% 39%
x264 [info]: i8 v,h,dc,ddl,ddr,vr,hd,vl,hu: 18% 10% 34% 5% 5% 7% 6% 7% 8%
x264 [info]: i4 v,h,dc,ddl,ddr,vr,hd,vl,hu: 26% 9% 6% 7% 11% 14% 10% 10% 8%
x264 [info]: i8c dc,h,v,p: 39% 27% 26% 8%
x264 [info]: Weighted P-Frames: Y:6.1% UV:1.1%
x264 [info]: ref P L0: 38.8% 12.8% 22.0% 5.4% 6.5% 3.3% 4.4% 1.9% 2.7% 1.7% 0.5% 0.0%
x264 [info]: ref B L0: 79.4% 11.2% 3.4% 1.9% 1.3% 1.2% 0.9% 0.4% 0.2%
x264 [info]: ref B L1: 94.8% 5.2%
x264 [info]: kb/s:2429.04
x264 [total]: encoded 138974 frames, 11.29 fps, 2429.04 kb/s

MediaInfo

General
Unique ID : 180442919373820520634447231442543993514 (0x87C00ACB7CBD7174905AB1CEDFE062AA)
Complete name : C:\Mischief.mkv
Format : Matroska
Format version : Version 4 / Version 2
File size : 2.07 GiB
Duration : 1h 36mn
Overall bit rate : 3 071 Kbps
Encoded date : UTC 2015-11-26 13:58:40
Writing application : mkvmerge v8.4.0 ('A better way to fly') 64bit
Writing library : libebml v1.3.1 + libmatroska v1.4.2
DURATION : 01:36:36.352000000
NUMBER_OF_FRAMES : 181136
NUMBER_OF_BYTES : 324595712
_STATISTICS_WRITING_APP : mkvmerge v8.4.0 ('A better way to fly') 64bit
_STATISTICS_WRITING_DATE_UT : 2015-11-26 13:58:40
_STATISTICS_TAGS : BPS DURATION NUMBER_OF_FRAMES NUMBER_OF_BYTES
Video
ID : 1
Format : AVC
Format/Info : Advanced Video Codec
Format profile : High@L3.1
Format settings, CABAC : Yes
Format settings, ReFrames : 10 frames
Codec ID : V_MPEG4/ISO/AVC
Duration : 1h 36mn
Bit rate : 2 430 Kbps
Width : 720 pixels
Height : 466 pixels
Display aspect ratio : 1.85:1
Original display aspect rat : 1.85:1
Frame rate mode : Constant
Frame rate : 23.976 fps
Color space : YUV
Chroma subsampling : 4:2:0
Bit depth : 8 bits
Scan type : Progressive
Bits/(Pixel*Frame) : 0.302
Stream size : 1.60 GiB (77%)
Writing library : x264 core 148 r2638 7599210
Encoding settings : cabac=1 / ref=10 / deblock=1:-1:-1 / analyse=0x3:0x133 / me=umh / subme=10 / psy=1 / psy_rd=1.00:0.10 / mixed_ref=1 / me_range=32 / chroma_me=1 / trellis=2 / 8x8dct=1 / cqm=0 / deadzone=21,11 / fast_pskip=0 / chroma_qp_offset=-3 / threads=6 / lookahead_threads=1 / sliced_threads=0 / nr=0 / decimate=1 / interlaced=0 / bluray_compat=0 / constrained_intra=0 / bframes=10 / b_pyramid=2 / b_adapt=2 / b_bias=0 / direct=3 / weightb=1 / open_gop=0 / weightp=2 / keyint=250 / keyint_min=23 / scenecut=40 / intra_refresh=0 / rc_lookahead=50 / rc=2pass / mbtree=1 / bitrate=2430 / ratetol=1.0 / qcomp=0.60 / qpmin=0 / qpmax=69 / qpstep=4 / cplxblur=20.0 / qblur=0.5 / ip_ratio=1.40 / aq=1:1.00
Language : English
Default : Yes
Forced : No
Audio #1
ID : 2
Format : AC-3
Format/Info : Audio Coding 3
Mode extension : CM (complete main)
Format settings, Endianness : Big
Codec ID : A_AC3
Duration : 1h 36mn
Bit rate mode : Constant
Bit rate : 192 Kbps
Channel(s) : 2 channels
Channel positions : Front: L R
Sampling rate : 48.0 KHz
Compression mode : Lossy
Stream size : 133 MiB (6%)
Title : НТВ+
Language : Russian
Default : Yes
Forced : No
Audio #2
ID : 3
Format : AC-3
Format/Info : Audio Coding 3
Mode extension : CM (complete main)
Format settings, Endianness : Big
Codec ID : A_AC3
Duration : 1h 36mn
Bit rate mode : Constant
Bit rate : 448 Kbps
Channel(s) : 6 channels
Channel positions : Front: L C R, Side: L R, LFE
Sampling rate : 48.0 KHz
Compression mode : Lossy
Stream size : 310 MiB (15%)
Language : English
Default : No
Forced : No
Menu
00:00:00.000 : :Chapter 01
00:06:24.067 : :Chapter 02
00:09:09.668 : :Chapter 03
00:13:17.502 : :Chapter 04
00:19:44.969 : :Chapter 05
00:25:19.303 : :Chapter 06
00:30:00.171 : :Chapter 07
00:41:17.905 : :Chapter 08
00:46:24.172 : :Chapter 09
00:55:17.939 : :Chapter 10
01:04:57.006 : :Chapter 11
01:10:20.006 : :Chapter 12
01:15:12.773 : :Chapter 13
01:20:23.240 : :Chapter 14
01:29:24.807 : :Chapter 15
01:33:32.074 : :Chapter 16

Скриншоты

To download the content you need:
1. Download and install torrent client [for Windows] or for mobile system
2. Click on [Download]
Attention.
If the test YOU are NOT a ROBOT - does not work, then You are using an outdated browser.
Install the current browser and click on [Download]
Security: torrent client is allowed by Kaspersky.

[en.asmlocator.ru].t4050.torrent 
Torrent: Registered [ 2015-11-30 05:45 ] · B544AEDFC8AB5CE88F18DCEC018D6C69FCF7A0DE

Download .torrent

Download

11 KB

Status: checked
Completed: 0 times
Size: 2.07 GB
terms.php
[Profile] [PM]
Display posts:    
Reply to topic

Current time is: 05-Dec 14:46

All times are UTC ± 0



You cannot post new topics in this forum
You cannot reply to topics in this forum
You cannot edit your posts in this forum
You cannot delete your posts in this forum
You cannot vote in polls in this forum
You cannot attach files in this forum
You can download files in this forum
Верим фактам, а не вранью Путина! Факт, что Правительство ведёт Россию к истреблению.
Так как численность населения падает, даже не смотря на приток эмигрантов!
Русская нация вымирает и вырождается, смешиваясь с эмигрантами!
Факт, что военных и граждан предприятий заставляют голосовать за партию Единая Россия и Путина
ПОД СТРАХОМ УВОЛЬНЕНИЯ!
Нам не нужно Правительство, блокирующее личную жизнь, интернет, нарушающее сохранность данных.
Все эти действия финансируются за счёт народа!