Личный дневник грешника... / Osobisty pamiętnik grzesznika przez niego samego spisany (Войцех Ежи Хас / Wojciech Jerzy Has) [1986, Польша, драма, мистика, исторический, DVDRip] + Sub Rus (petpav, bohdk) + Original Pol

Reply to topic
DL-List and Torrent activity
Size:  700 MB   |    Registered:  4 years   |    Completed:  0 times

Seeder not seen: 1 year 6 months

 
   
 
 
Author Message

star21 ®

Gender: Female

Longevity: 4 years 1 month

Posts: 551946

Location: Екатеринбург

Post 30-Nov-2015 05:50

[Quote]

Личный дневник грешника... / Osobisty pamiętnik grzesznika przez niego samego spisany
Страна: Польша
Жанр: драма, мистика, исторический
Год выпуска: 1986
Продолжительность: 01:52:01
Перевод: Субтитры
Cубтитры: русские - petpav, bohdk
Оригинальная аудиодорожка: польский
Режиссер: Войцех Ежи Хас / Wojciech Jerzy Has
В ролях: Петр Байор, Мацей Козловский, Януш Михаловский, Ханна Станкувна, Эва Вишневска, Францишек Печка, Анна Дымна, Катажина Фигура, Ян Янковский, Ян Павел Крук
Описание: Выкопанный грабителями могил труп грешника оживает и рассказывает историю своей жизни...
Главный герой - Роберт - в состоянии одержимости совершает ряд убийств, приписывая их внушение демоническому двойнику, который подчиняет его себе и толкает на немыслимые поступки.
Доп. информация: Фильм снят по мотивам "готического" романа Джеймса Хогга «Воспоминания и исповедь оправдывающегося грешника» ( The Private Memoirs and Confessions of a Justified Sinner (1824)
Рип найден в сети. Субтитры - petpav, bohdk
Сэмпл: http://sendfile.su/1177905
Качество видео: DVDRip
Формат видео: AVI
Видео: XVID, 608x320, 700 Mb, 25.000 fps, 874 Kbps
Аудио: MP3, 48.0 KHz, 128 Kbps, 2 channels
Формат субтитров: softsub (SRT)

Образец субтитров

8
00:05:23,780 --> 00:05:27,250
"Горе живущим на земле и на море,
9
00:05:28,940 --> 00:05:33,934
потому что к вам сошел дьявол
в сильной ярости,
10
00:05:34,140 --> 00:05:37,337
зная, что не много ему осталось времени".
11
00:06:07,780 --> 00:06:09,657
Он должен иметь это при себе.
12
00:06:27,180 --> 00:06:29,057
Имеешь что при себе?
13
00:06:30,625 --> 00:06:31,500
Ты слышишь меня?
14
00:06:33,460 --> 00:06:37,009
Да. Но я хочу сам об этом рассказать.
15
00:06:38,900 --> 00:06:40,094
Не мешай!
16
00:06:40,860 --> 00:06:43,499
Вспоминай и говори!
17
00:06:46,140 --> 00:06:48,449
Я родился изгоем в мире,
18
00:06:48,660 --> 00:06:51,618
в котором должен был играть заметную роль.
19
00:06:52,180 --> 00:06:56,298
Моя мать была яркой личностью,
20
00:06:56,500 --> 00:06:57,569
украшением общества.
21
00:06:58,420 --> 00:07:02,777
Но в дни ее девичества она многое испытала,
22
00:07:02,980 --> 00:07:06,097
в связи с преследованиями,
что случается со всеми святыми.

MediaInfo

General
Полное имя : G:\Osobisty_pamietnik_grzesznika.1986.avi
Формат : AVI
Формат/Информация : Audio Video Interleave
Размер файла : 700 MiB
Продолжительность : 1h 52mn
Режим общего битрейта : Variable
Общий поток : 874 Kbps
Программа кодирования : VirtualDubMod 1.5.4.1 (build 2178/release)
Библиотека кодирования : VirtualDubMod build 2178/release
Video
Идентификатор : 0
Формат : MPEG-4 Visual
Профиль формата : Advanced Simple@L5
Параметр BVOP формата : 1
Параметр QPel формата : No
Параметр GMC формата : No warppoints
Параметр матрицы формата : Custom
Идентификатор кодека : XVID
Идентификатор кодека/Подсказка : XviD
Продолжительность : 1h 52mn
Битрейт : 749 Kbps
Ширина : 608 pixels
Высота : 320 pixels
Соотношение сторон : 1.900
Частота кадров : 25.000 fps
Цветовое пространство : YUV
Субдискретизация насыщенности : 4:2:0
Битовая глубина : 8 bits
Тип развёртки : Progressive
Метод сжатия : Lossy
Бит/(Пиксели*Кадры) : 0.154
Размер потока : 600 MiB (86%)
Библиотека кодирования : XviD 1.2.1 (UTC 2008-12-04)
Audio
Идентификатор : 1
Формат : MPEG Audio
Версия формата : Version 1
Профиль формата : Layer 3
Режим : Joint stereo
Расширение режима : MS Stereo
Идентификатор кодека : 55
Идентификатор кодека/Подсказка : MP3
Продолжительность : 1h 52mn
Вид битрейта : Variable
Битрейт : 111 Kbps
Номинальный битрейт : 128 Kbps
Каналы : 2 channels
Частота : 48.0 KHz
Метод сжатия : Lossy
Размер потока : 89.2 MiB (13%)
Выравнивание : Aligned on interleaves
Продолжительность промежутка : 24 ms (0.60 video frame)
Время предзагрузки промежутка : 555 ms
Библиотека кодирования : LAME3.98r
Настройки программы : -m j -V 4 -q 2 -lowpass 17 --abr 128
Язык : Polish

Скриншот c названием фильма

Скриншоты

Мои раздачи

Благая весть / La buena nueva
Врач эмира / Médecin de l'émir
Карандаш плотника / El lápiz del carpintero
Луна волков / Luna de lobos
Маршал ада / El mariscal del infierno / Devil's Possessed
Мятежники из Ломанака / Les Révoltés de Lomanach
Прогулка с любовью и смертью / A Walk with Love and Death
Черные и белые в цвете / Noirs et blancs en couleur

To download the content you need:
1. Download and install torrent client [for Windows] or for mobile system
2. Click on [Download]
Attention.
If the test YOU are NOT a ROBOT - does not work, then You are using an outdated browser.
Install the current browser and click on [Download]
Security: torrent client is allowed by Kaspersky.

[en.asmlocator.ru].t4048.torrent 
Torrent: Registered [ 2015-11-30 05:45 ] · D3EFAF3F0EB8D1729EDB1787FF4880E885D11466

Download .torrent

Download

14 KB

Status: checked
Completed: 0 times
Size: 700 MB
terms.php
[Profile] [PM]
Display posts:    
Reply to topic

Current time is: 08-Dec 10:52

All times are UTC ± 0



You cannot post new topics in this forum
You cannot reply to topics in this forum
You cannot edit your posts in this forum
You cannot delete your posts in this forum
You cannot vote in polls in this forum
You cannot attach files in this forum
You can download files in this forum
Верим фактам, а не вранью Путина! Факт, что Правительство ведёт Россию к истреблению.
Так как численность населения падает, даже не смотря на приток эмигрантов!
Русская нация вымирает и вырождается, смешиваясь с эмигрантами!
Факт, что военных и граждан предприятий заставляют голосовать за партию Единая Россия и Путина
ПОД СТРАХОМ УВОЛЬНЕНИЯ!
Нам не нужно Правительство, блокирующее личную жизнь, интернет, нарушающее сохранность данных.
Все эти действия финансируются за счёт народа!