Кивиток - горный скиталец / Легенда о беглеце / Qivitoq - Fjeldgaengeren (Эрик Баллинг / Erik Balling) [1956, Дания, мелодрама, DVDRip] VO (Vaxywod)

Reply to topic
DL-List and Torrent activity
Size:  1.46 GB   |    Registered:  4 years   |    Completed:  0 times

Seeder not seen: 2 years

 
   
 
 
Author Message

star21 ®

Gender: Female

Longevity: 4 years 1 month

Posts: 551946

Location: Екатеринбург

Post 30-Nov-2015 05:50

[Quote]

Кивиток - горный скиталец / Легенда о беглеце / Qivitoq - Fjeldgaengeren
Страна: Дания
Жанр: мелодрама
Год выпуска: 1956
Продолжительность: 01:42:09
Перевод: Одноголосый закадровый Vaxywod (по оригинальным субтитрам М. Васильева)
Cубтитры: нет
Режиссер: Эрик Баллинг / Erik Balling
В ролях: Ранди Михельсен, Поуль Райкхард, Астрид Виллауме, Гуннар Лауринг
Описание: Ева отправляется в Гренландию, чтобы навестить своего жениха, работающего там по контракту. По прибытии выясняется, что он уже живет с другой женщиной, а ближайший корабль обратно в Данию будет через месяц. Ева с ужасом понимает, что застряла на несколько недель в стране, о жителях и нравах которой она совершенно ничего не знает...
Доп. информация: Масштабное, не лишенное пафоса кино. Сделанная широкими мазками зарисовка о жизни в Гренландии в середине 1950-х годов. То было время, когда заканчивалась так называемая «колониальная эпоха», остров официально вошел в состав Дании, которая начала активно вкладывать в регион деньги, пытаясь одновременно монетизировать ресурсы острова.
Каждый увидит в этом фильме то, что пожелает: любители северной природы — монументальные пейзажи; ценители национального колорита — сцены из жизни инуитов; а кто-то — шовинизм, запрятанную за красивым фасадом идею о «величии белого человека» и попытки "уболтать колониальную совесть".
Сейчас картина единодушно признается абсолютной классикой и одним из шедевров датского кинематографа.
По случаю 50-летия фильма, он был отреставрирован и оцифрован.
Первый художественный фильм, сьемки которого проходили в Гренландии.
Номинация на Оскар в категории «Лучший иностранный фильм»
Участник конкурсной программы Каннского Кинофестиваля
Исходник релиза и отраженная доп. информация:
Сэмпл: http://sendfile.su/1140662
Качество видео: DVDRip
Формат видео: AVI
Видео: MPEG 4 XviD, 720x432 (1.667), 25 000 fps, 1844 Kbps
Аудио: AC 3, 48.0 KHz, 192 Kbps, 16 bits, 2 ch

MediaInfo

D:\Кивиток\ГорныйСкиталец.avi
General
Complete name : D:\Кивиток\ГорныйСкиталец.avi
Format : AVI
Format/Info : Audio Video Interleave
File size : 1.46 GiB
Duration : 1h 42mn
Overall bit rate : 2 046 Kbps
Writing application : VirtualDubMod 1.5.10.3 | www.virtualdub-fr.org || (build 2550/release)
Writing library : VirtualDub build 35491/release
Video #0
ID : 0
Format : MPEG-4 Visual
Format profile : Advanced Simple@L5
Format settings, BVOP : 2
Format settings, QPel : No
Format settings, GMC : No warppoints
Format settings, Matrix : Default (H.263)
Codec ID : XVID
Codec ID/Hint : XviD
Duration : 1h 42mn
Bit rate : 1 845 Kbps
Width : 720 pixels
Height : 432 pixels
Display aspect ratio : 1.667
Frame rate : 25.000 fps
Color space : YUV
Chroma subsampling : 4:2:0
Bit depth : 8 bits
Scan type : Progressive
Compression mode : Lossy
Bits/(Pixel*Frame) : 0.237
Stream size : 1.32 GiB (90%)
Writing library : XviD 1.2.1 (UTC 2008-12-04)
Audio #1
ID : 1
Format : AC-3
Format/Info : Audio Coding 3
Mode extension : CM (complete main)
Codec ID : 2000
Duration : 1h 42mn
Bit rate mode : Constant
Bit rate : 192 Kbps
Channel(s) : 2 channels
Channel positions : Front: L R
Sampling rate : 48.0 KHz
Bit depth : 16 bits
Compression mode : Lossy
Stream size : 140 MiB (9%)
Alignment : Aligned on interleaves
Interleave, duration : 40 ms (1.00 video frame)
Interleave, preload duration : 512 ms

Скриншот c названием фильма

Скриншоты

To download the content you need:
1. Download and install torrent client [for Windows] or for mobile system
2. Click on [Download]
Attention.
If the test YOU are NOT a ROBOT - does not work, then You are using an outdated browser.
Install the current browser and click on [Download]
Security: torrent client is allowed by Kaspersky.

[en.asmlocator.ru].t4047.torrent 
Torrent: Registered [ 2015-11-30 05:45 ] · DC3C83323BAC877FB1A3D158B1ACA4973CCB545B

Download .torrent

Download

15 KB

Status: checked
Completed: 0 times
Size: 1.46 GB
terms.php
[Profile] [PM]
Display posts:    
Reply to topic

Current time is: 14-Dec 01:06

All times are UTC ± 0



You cannot post new topics in this forum
You cannot reply to topics in this forum
You cannot edit your posts in this forum
You cannot delete your posts in this forum
You cannot vote in polls in this forum
You cannot attach files in this forum
You can download files in this forum
Верим фактам, а не вранью Путина! Факт, что Правительство ведёт Россию к истреблению.
Так как численность населения падает, даже не смотря на приток эмигрантов!
Русская нация вымирает и вырождается, смешиваясь с эмигрантами!
Факт, что военных и граждан предприятий заставляют голосовать за партию Единая Россия и Путина
ПОД СТРАХОМ УВОЛЬНЕНИЯ!
Нам не нужно Правительство, блокирующее личную жизнь, интернет, нарушающее сохранность данных.
Все эти действия финансируются за счёт народа!