Лодка «Счастливая леди» / Леди Удача / Lucky Lady (Стэнли Донен / Stanley Donen) [1975, США, комедия, DVDRip] MVO (5 канал) + Original Eng

Reply to topic
DL-List and Torrent activity
Size:  1.61 GB   |    Registered:  4 years   |    Completed:  1 time

Seeder not seen: 1 month 23 days

 
   
 
 
Author Message

star21 ®

Gender: Female

Longevity: 4 years 1 month

Posts: 551946

Location: Екатеринбург

Post 30-Nov-2015 05:50

[Quote]

Лодка «Счастливая леди» / Леди Удача / Lucky Lady
Страна: США
Жанр: комедия
Год выпуска: 1975
Продолжительность: 01:57:49
Перевод: Профессиональный (многоголосый закадровый) - 5 канал (Санкт-Петербург)
Cубтитры: нет
Оригинальная аудиодорожка: английский

Режиссер: Стэнли Донен / Stanley Donen
В ролях: Джин Хэкмен, Лайза Миннелли, Берт Рейнольдс, Джеффри Льюис, Джон Хиллерман, Робби Бенсон, Майкл Хордерн, Энтони Холланд, Джон МакЛайэм, Вэл Эвери, Луис Гасс, Уильям Бассетт
Описание: Действие фильма происходит во времена "сухого закона". Молодая вдова Клэр после смерти мужа становится хозяйкой ночного заведения. Она делает все, чтобы привлечь клиентов, но дела идут плохо. Тогда ей приходит в голову мысль попробовать переправить партию спиртного из Мексики в Сан-Диего. Для этого Клэр кооперируется с Кибби и Уокером, двумя "джентльменами удачи", ловкими бутлегерами, курсирующими между Мексикой и Штатами с подпольной выпивкой на борту небольшой лодочки под названием "Леди Удача". Но оба друга влюбляются в Клэр, рискуя поставить под удар и свою дружбу, и бизнес, а Клэр... влюбляется в них обоих.
Качество видео:
Формат видео: AVI
Видео: 704x384 (1.83:1), 23.976 fps, XviD build 73 ~1567 kbps avg, 0.24 bit/pixel
Аудио: 48 kHz, AC3 Dolby Digital, 2/0 (L,R) ch, ~192 kbps - многоголосый
Аудио: 48 kHz, AC3 Dolby Digital, 2/0 (L,R) ch, ~192 kbps - оригинал (отдельным файлом)

MediaInfo

Общее
Полное имя : H:\Lucky.Lady.1975.dvdrip_[1.46]_[teko]\Lucky.Lady.1975.dvdrip_[1.46].avi
Формат : AVI
Формат/Информация : Audio Video Interleave
Размер файла : 1,46 Гбайт
Продолжительность : 1 ч. 57 м.
Общий поток : 1769 Кбит/сек
Программа кодирования : VirtualDubMod 1.5.10.3 | www.virtualdub-fr.org || (build 2550/release)
Библиотека кодирования : VirtualDubMod build 2550/release
Видео
Идентификатор : 0
Формат : MPEG-4 Visual
Профиль формата : Advanced Simple@L5
Параметр BVOP формата : 1
Параметр QPel формата : Нет
Параметр GMC формата : Без точки перехода
Параметр матрицы формата : Выборочная
Идентификатор кодека : XVID
Идентификатор кодека/Подсказка : XviD
Продолжительность : 1 ч. 57 м.
Битрейт : 1568 Кбит/сек
Ширина : 704 пикселя
Высота : 384 пикселя
Соотношение сторон : 1,85:1
Частота кадров : 23,976 кадра/сек
Цветовое пространство : YUV
Субдискретизация насыщенности : 4:2:0
Битовая глубина : 8 бит
Тип развёртки : Прогрессивная
Метод сжатия : С потерями
Бит/(Пиксели*Кадры) : 0.242
Размер потока : 1,29 Гбайт (89%)
Библиотека кодирования : XviD 73
Аудио
Идентификатор : 1
Формат : AC-3
Формат/Информация : Audio Coding 3
Расширение режима : CM (complete main)
Параметр Endianness формата : Big
Идентификатор кодека : 2000
Продолжительность : 1 ч. 57 м.
Вид битрейта : Постоянный
Битрейт : 192 Кбит/сек
Каналы : 2 канала
Расположение каналов : Front: L R
Частота : 48,0 КГц
Битовая глубина : 16 бит
Метод сжатия : С потерями
Размер потока : 162 Мбайт (11%)
Выравнивание : Разделение по промежуткам
Продолжительность промежутка : 42 мс. (1,00 видеокадр)
Время предзагрузки промежутка : 500 мс.
Релиз группы:
-
-

To download the content you need:
1. Download and install torrent client [for Windows] or for mobile system
2. Click on [Download]
Attention.
If the test YOU are NOT a ROBOT - does not work, then You are using an outdated browser.
Install the current browser and click on [Download]
Security: torrent client is allowed by Kaspersky.

[en.asmlocator.ru].t4040.torrent 
Torrent: Registered [ 2015-11-30 05:45 ] · CD38E276D900FEAC544DC340976BC3873C1055BE

Download .torrent

Download

17 KB

Status: checked
Completed: 1 times
Size: 1.61 GB
terms.php
[Profile] [PM]
Display posts:    
Reply to topic

Current time is: 12-Dec 03:42

All times are UTC ± 0



You cannot post new topics in this forum
You cannot reply to topics in this forum
You cannot edit your posts in this forum
You cannot delete your posts in this forum
You cannot vote in polls in this forum
You cannot attach files in this forum
You can download files in this forum
Верим фактам, а не вранью Путина! Факт, что Правительство ведёт Россию к истреблению.
Так как численность населения падает, даже не смотря на приток эмигрантов!
Русская нация вымирает и вырождается, смешиваясь с эмигрантами!
Факт, что военных и граждан предприятий заставляют голосовать за партию Единая Россия и Путина
ПОД СТРАХОМ УВОЛЬНЕНИЯ!
Нам не нужно Правительство, блокирующее личную жизнь, интернет, нарушающее сохранность данных.
Все эти действия финансируются за счёт народа!