Билли Кид против Дракулы / Малыш Билли против Дракулы / Billy the Kid Versus Dracula (Уилльям Бодайн / William Beaudine) [1966, США, вестерн, ужасы, HDTVRip] Sub Rus + Original Eng

Reply to topic
DL-List and Torrent activity
Size:  1.09 GB   |    Registered:  4 years   |    Completed:  0 times

Seeder not seen: 1 month 20 days

 
   
 
 
Author Message

star21 ®

Gender: Female

Longevity: 4 years 1 month

Posts: 551946

Location: Екатеринбург

Post 30-Nov-2015 05:50

[Quote]

Билли Кид против Дракулы / Малыш Билли против Дракулы / Billy the Kid Versus Dracula Страна: США
Жанр: вестерн, ужасы
Год выпуска: 1966
Продолжительность: 01:13:54
Перевод: Субтитры vxga (Василий Рузаков)
Cубтитры: русские
Оригинальная аудиодорожка: английский
Режиссер: Уилльям Бодайн / William Beaudine
В ролях: Джон Кэрредин, Чак Кортни, Мелинда Плауман, Вирджиния Кристин, Гарри Кэри мл., Уолтер Яновиц, Бинг Расселл, Олив Кэри, Рой Баркрофт, Ричард Ривз, Марджори Беннетт, Уильям Форрест, Леонард П. Гир, Уильям Чэлли, Чарлита, Макс Клевен, Джек Уильямс
Описание: Путешествуя по дикому Западу в дилижансе граф Дракула знакомится с фермером Джеймсом Андерхиллом. Он очарован красотой его племянницы Бетти Бентли. После того, как Дракула выпивает кровь молодой индианки, индейцы нападают на дилижанс и убивают всех. Но Дракула не может умереть, поэтому он берет себе имя Андерхилла и отправляется на его ранчо. Он хочет выпить кровь Бетти. Но на соседнем ранчо живут два иммигранта из Европы, которые догадываются, что их новый сосед-вампир. Они встречаются с вышедшим из исправительной тюрьмы Билли Кидом, который трудится рабочим на ранчо, и рассказывают ему об Андерхилле. Билли Кид сам влюблен в Бетти, поэтому собирается остановить графа Дракулу…
Доп. информация: Собственный рип. Спасибо за русские сабы vxga (Василий Рузаков) с видеодемонс!
Сэмпл: http://multi-up.com/1060286
Качество видео: HDTVRip
Исходник: Billy The Kid Versus Dracula (1966) 1080p HDTVRip (Kingtut)
Формат видео: AVI
Видео: XviD, 720x544 (4:3), 23.976 fps, 1900 kbps avg
Аудио: English 48 kHz, AC3 Dolby Digital, 2/0 (L,R) ch, ~192 kbps avg
Формат субтитров: softsub (SRT)

MediaInfo

General
Complete name : F:\Billy The Kid Versus Dracula (1966)\Billy The Kid Versus Dracula_1966.HDTVRip.avi
Format : AVI
Format/Info : Audio Video Interleave
File size : 1.09 GiB
Duration : 1h 13mn
Overall bit rate : 2 102 Kbps
Writing application : VirtualDubMod 1.5.10.3 | www.virtualdub-fr.org || (build 2550/release)
Writing library : VirtualDubMod build 2550/release
Video
ID : 0
Format : MPEG-4 Visual
Format profile : Advanced Simple@L5
Format settings, BVOP : 1
Format settings, QPel : No
Format settings, GMC : No warppoints
Format settings, Matrix : Default (MPEG)
Codec ID : XVID
Codec ID/Hint : XviD
Duration : 1h 13mn
Bit rate : 1 901 Kbps
Width : 720 pixels
Height : 544 pixels
Display aspect ratio : 4:3
Frame rate : 23.976 fps
Color space : YUV
Chroma subsampling : 4:2:0
Bit depth : 8 bits
Scan type : Progressive
Compression mode : Lossy
Bits/(Pixel*Frame) : 0.202
Stream size : 1 005 MiB (90%)
Writing library : XviD 73
Audio
ID : 1
Format : AC-3
Format/Info : Audio Coding 3
Mode extension : CM (complete main)
Format settings, Endianness : Big
Codec ID : 2000
Duration : 1h 13mn
Bit rate mode : Constant
Bit rate : 192 Kbps
Channel(s) : 2 channels
Channel positions : Front: L R
Sampling rate : 48.0 KHz
Compression mode : Lossy
Stream size : 101 MiB (9%)
Alignment : Split accross interleaves
Interleave, duration : 42 ms (1.00 video frame)
Interleave, preload duratio : 500 ms

Скриншоты

Фрагмент субтитров

1
00:00:20,800 --> 00:00:23,066
Фрэнк, я снова это слышала.
2
00:00:23,489 --> 00:00:25,607
Оно пришло. Оно здесь.
3
00:00:25,853 --> 00:00:29,803
Эти звуки слышны каждый день, мама.
Обычный кошмар.
4
00:00:29,951 --> 00:00:31,898
Не беспокойся так сильно.
5
00:00:32,086 --> 00:00:34,580
Я же не о себе беспокоюсь.
6
00:00:35,403 --> 00:00:38,385
Ложись спать. Ложись спать, а?
7
00:02:02,150 --> 00:02:02,671
Мама!
8
00:02:08,473 --> 00:02:09,424
Кто там?
9
00:02:11,235 --> 00:02:11,871
Лиза?
10
00:02:14,166 --> 00:02:16,679
О Господи, помилуй нас!
11
00:02:17,523 --> 00:02:18,338
Пресвятые небеса!
12
00:02:18,810 --> 00:02:20,001
Это был вампир!
13
00:02:20,603 --> 00:02:22,266
Лиза! Лиза!
14
00:02:22,347 --> 00:02:24,320
Моя любимая Лиза...
15
00:02:24,369 --> 00:02:24,996
Мама!
16
00:02:24,996 --> 00:02:27,579
Нет, нет, нет!
17
00:02:32,272 --> 00:02:37,101
Билли Кид против Дракулы
18
00:02:37,101 --> 00:02:42,724
В главной роли Джон Каррадайн
19
00:02:43,097 --> 00:02:45,505
Чак Кортни и Мелинда Плауман
20
00:04:02,495 --> 00:04:06,291
режиссер
Уилльям Бодайн
21
00:04:27,913 --> 00:04:31,293
Знаете, немного страшновато
путешествовать ночью.
22
00:04:31,293 --> 00:04:34,227
И когда мы остановились подобрать вас
23
00:04:34,724 --> 00:04:37,439
где-то посреди черной пустоты,
24
00:04:38,255 --> 00:04:40,079
я едва не умерла от сердечного приступа.
25
00:04:45,091 --> 00:04:47,321
А далеко вы его подобрали?

To download the content you need:
1. Download and install torrent client [for Windows] or for mobile system
2. Click on [Download]
Attention.
If the test YOU are NOT a ROBOT - does not work, then You are using an outdated browser.
Install the current browser and click on [Download]
Security: torrent client is allowed by Kaspersky.

[en.asmlocator.ru].t4039.torrent 
Torrent: Registered [ 2015-11-30 05:45 ] · E28DFBA8ECDFF30B410273BBF2A1830969C835EC

Download .torrent

Download

11 KB

Status: checked
Completed: 0 times
Size: 1.09 GB
terms.php
[Profile] [PM]
Display posts:    
Reply to topic

Current time is: 09-Dec 05:01

All times are UTC ± 0



You cannot post new topics in this forum
You cannot reply to topics in this forum
You cannot edit your posts in this forum
You cannot delete your posts in this forum
You cannot vote in polls in this forum
You cannot attach files in this forum
You can download files in this forum
Верим фактам, а не вранью Путина! Факт, что Правительство ведёт Россию к истреблению.
Так как численность населения падает, даже не смотря на приток эмигрантов!
Русская нация вымирает и вырождается, смешиваясь с эмигрантами!
Факт, что военных и граждан предприятий заставляют голосовать за партию Единая Россия и Путина
ПОД СТРАХОМ УВОЛЬНЕНИЯ!
Нам не нужно Правительство, блокирующее личную жизнь, интернет, нарушающее сохранность данных.
Все эти действия финансируются за счёт народа!