Городская девушка / Горожанка / Хлеб наш насущный / City Girl / Our Daily Bread (Фридрих Вильгельм Мурнау / Friedrich Wilhelm Murnau) [1930, США, драма, мелодрама, HDRip] Sub Rus + Original Eng

Reply to topic
DL-List and Torrent activity
Size:  1.45 GB   |    Registered:  4 years   |    Completed:  0 times

Seeder not seen: Never

 
   
 
 
Author Message

star21 ®

Gender: Female

Longevity: 4 years 1 month

Posts: 551946

Location: Екатеринбург

Post 30-Nov-2015 05:50

[Quote]

Городская девушка / Горожанка / Хлеб наш насущный / City Girl / Our Daily Bread
Страна: США
Жанр: драма, мелодрама
Год выпуска: 1930
Продолжительность: 01:28:25
Перевод: Субтитры - Herbst
Cубтитры: русские
Оригинальная аудиодорожка: английский

Режиссер: Фридрих Вильгельм Мурнау / Friedrich Wilhelm Murnau
В ролях: Чарльз Фаррелл, Мэри Дункан, Дэвид Торренс, Эдит Йорк, Энн Ширли, Тим МакГуайр, Ричард Александр, Патрик Руни, Эдвард Брэйди, Роско Эйтс
Описание: Редкий Немого периода фильм о парне с Миннесотских полей, который приезжает в Чикаго чтобы продать пшеницу, которую его семья вырастила на их ферме и там, в городе Лем встречает официантку Кейт, Они влюбляются и перед возвращением домой женятся, но после приезда на ферму отец своего сына и его молодую жену принимает очень холодно...
Первоначально Ф.В.Мурнау фильм закончил 1929 году как "Хлеб наш насущный", но потом фильм был сокращен и уже в 1930 году повторно выпущен с на студии "Fox Film Corporation" записанным звуком под названием "Городская девушка"

Качество видео:
Формат видео: AVI
Видео: 624x528 (1.18:1), 23.976 fps, XviD build 73 ~2148 kbps avg, 0.27 bit/pixel
Аудио: 48 kHz, AC3 Dolby Digital, 2/0 (L,R) ch, ~192 kbps

Фрагмент субтитров

94
00:42:54,440 --> 00:42:57,110
Я хочу поговрить с тобой!
95
00:43:30,184 --> 00:43:36,232
Чего вы ожидаете от этого брака с Лемом?
96
00:43:45,533 --> 00:43:48,536
Того, чего ожидает всякая жена.
97
00:43:48,536 --> 00:43:51,581
Я вышла за Лема, потому что люблю его!
98
00:43:54,292 --> 00:43:58,880
Женщины, подобные вам, могут
любить только за выгоду.
99
00:44:05,511 --> 00:44:10,725
Но от меня вы ничего не получите!
Так что возвращайтесь в Чикаго!
100
00:44:13,895 --> 00:44:19,233
Вы. конечно, на это и рассчитывали!
Теперь-то я никогда не оставлю Лема!
101
00:44:23,154 --> 00:44:28,826
Я сделаю из Лема Тастина
настоящего мужчину - вопреки вам!
102
00:44:31,287 --> 00:44:34,707
И если вы думаете, что он
позволит мне уехать одной,
103
00:44:34,749 --> 00:44:37,543
то заблуждаетесь!
104
00:44:41,214 --> 00:44:44,509
Я здесь хозяин! И мой сын будет
делать то, что я прикажу!
105
00:44:44,550 --> 00:44:47,428
Так же как и ты!
106
00:45:23,923 --> 00:45:25,758
Твой... отец... ударил меня!

MediaInfo

Общее
Полное имя : H:\City.Girl.1930.hdrip_[1.46]_[teko]\City.Girl.1930.hdrip_[1.46].avi
Формат : AVI
Формат/Информация : Audio Video Interleave
Размер файла : 1,45 Гбайт
Продолжительность : 1 ч. 28 м.
Общий поток : 2350 Кбит/сек
Программа кодирования : VirtualDubMod 1.5.10.3 | www.virtualdub-fr.org || (build 2550/release)
Библиотека кодирования : VirtualDubMod build 2550/release
Видео
Идентификатор : 0
Формат : MPEG-4 Visual
Профиль формата : Advanced Simple@L5
Параметр BVOP формата : 1
Параметр QPel формата : Нет
Параметр GMC формата : Без точки перехода
Параметр матрицы формата : Выборочная
Идентификатор кодека : XVID
Идентификатор кодека/Подсказка : XviD
Продолжительность : 1 ч. 28 м.
Битрейт : 2149 Кбит/сек
Ширина : 624 пикселя
Высота : 528 пикселей
Соотношение сторон : 1,182
Частота кадров : 23,976 кадра/сек
Цветовое пространство : YUV
Субдискретизация насыщенности : 4:2:0
Битовая глубина : 8 бит
Тип развёртки : Прогрессивная
Метод сжатия : С потерями
Бит/(Пиксели*Кадры) : 0.272
Размер потока : 1,33 Гбайт (91%)
Библиотека кодирования : XviD 73
Аудио
Идентификатор : 1
Формат : AC-3
Формат/Информация : Audio Coding 3
Расширение режима : CM (complete main)
Параметр Endianness формата : Big
Идентификатор кодека : 2000
Продолжительность : 1 ч. 28 м.
Вид битрейта : Постоянный
Битрейт : 192 Кбит/сек
Каналы : 2 канала
Расположение каналов : Front: L R
Частота : 48,0 КГц
Битовая глубина : 16 бит
Метод сжатия : С потерями
Размер потока : 121 Мбайт (8%)
Выравнивание : Разделение по промежуткам
Продолжительность промежутка : 42 мс. (1,00 видеокадр)
Время предзагрузки промежутка : 500 мс.
Релиз группы:
-
-

To download the content you need:
1. Download and install torrent client [for Windows] or for mobile system
2. Click on [Download]
Attention.
If the test YOU are NOT a ROBOT - does not work, then You are using an outdated browser.
Install the current browser and click on [Download]
Security: torrent client is allowed by Kaspersky.

[en.asmlocator.ru].t4036.torrent 
Torrent: Registered [ 2015-11-30 05:45 ] · D3CF952EE567E57E68BBF7318505DBCAFEEC32B2

Download .torrent

Download

15 KB

Status: checked
Completed: 0 times
Size: 1.45 GB
terms.php
[Profile] [PM]
Display posts:    
Reply to topic

Current time is: 13-Dec 23:09

All times are UTC ± 0



You cannot post new topics in this forum
You cannot reply to topics in this forum
You cannot edit your posts in this forum
You cannot delete your posts in this forum
You cannot vote in polls in this forum
You cannot attach files in this forum
You can download files in this forum
Верим фактам, а не вранью Путина! Факт, что Правительство ведёт Россию к истреблению.
Так как численность населения падает, даже не смотря на приток эмигрантов!
Русская нация вымирает и вырождается, смешиваясь с эмигрантами!
Факт, что военных и граждан предприятий заставляют голосовать за партию Единая Россия и Путина
ПОД СТРАХОМ УВОЛЬНЕНИЯ!
Нам не нужно Правительство, блокирующее личную жизнь, интернет, нарушающее сохранность данных.
Все эти действия финансируются за счёт народа!