Под тропиком Козерога / Под знаком Козерога / Under Capricorn / Les amants du Capricorne (Альфред Хичкок / Alfred Hitchcock) [1949, Великобритания, мелодрама, детектив, экранизация, DVB-AVC] MVO (Kino Polska)

Reply to topic
DL-List and Torrent activity
Size:  720 MB   |    Registered:  4 years   |    Completed:  0 times

Seeder not seen: 1 year 10 months

 
   
 
 
Author Message

star21 ®

Gender: Female

Longevity: 4 years 1 month

Posts: 551946

Location: Екатеринбург

Post 30-Nov-2015 05:50

[Quote]

Под тропиком Козерога
Under Capricorn- Страна: Великобритания
Жанр: мелодрама, детектив, экранизация
Год выпуска: 1949
Продолжительность: 01:52:09Перевод: Профессиональный (многоголосый закадровый) по заказу Kino Polska на производственно-технической базе Студии "Акцент"
Cубтитры: нет
Режиссер: Альфред Хичкок / Alfred Hitchcock
В ролях: Ингрид Бергман / Ingrid Bergman (Lady Henrietta Flusky), Джозеф Коттен / Joseph Cotten (Sam Flusky), Майкл Уайлдинг / Michael Wilding (Hon. Charles Adare), Маргарет Лейтон / Margaret Leighton (Milly), Альфред Хичкок / Alfred Hitchcock (Man at Governor's reception)
Описание: По пьесе Джона Колтона / John Colton и Маргарет Линден / Margaret Linden, основанной на одноименном романе Хелен Симпсон / Helen Simpson (1937).
Австралия, 1831 год. Племянник губернатора Чарльз, только что прибывший из Англии, узнаёт, что его кузина Генриетта вышла замуж за бывшего каторжника, а ныне - преуспевающего землевладельца Сэма Фласки. На приёме в доме кузины Чарльз видит, что Генриетта - алкоголичка с припадками безумия, а их экономка Милли ведёт себя слишком вызывающе. Чарльз пытается помочь кузине обрести достойный вид.
Доп. информация: Filmbox Arthouse IPTV. В отличие от имеющихся на трекере релизов с MVO (ООО "Светла") здесь другой перевод MVO (Kino Polska).
Награда: приз Bambi Awards 1951 лучшей актрисе (Ingrid Bergman). Французский журнал о кино "Кайе дю синема" в 1958 году назвал картину одним из десяти лучших фильмов всех времён и народов.
[imdb]http://www.imdb.com/title/tt0042004[/imdb]
Качество видео: DVB-AVC
Формат видео: MKV
Видео: AVC (H.264), 720x576@1024x576 (16:9), 25 fps, ~751 kbps avg, 0.072 bit/pixel
Аудио: MPEG Audio 2, 2 ch, 48 kHz, ~128.00 kbps avg

MediaInfo

ОбщееУникальный идентификатор                 : 189799538834271693911180881655561297769 (0x8ECA0FC03ECF0624A95878265D199F69)Полное имя                               : F:\My Torrents 3\[apreder]Under_Capricorn(1949)DVB.mkvФормат                                   : MatroskaВерсия формата                           : Version 2Размер файла                             : 720 МбайтПродолжительность                        : 1 ч. 52 м.Общий поток                              : 897 Кбит/секДата кодирования                         : UTC 2015-07-28 16:23:33Программа кодирования                    : mkvmerge v8.2.0 ('World of Adventure') 64bitБиблиотека кодирования                   : libebml v1.3.1 + libmatroska v1.4.2Attachements                             : cover.jpg / cover_small.jpg
ВидеоИдентификатор : 2Формат : AVCФормат/Информация : Advanced Video CodecПрофиль формата : Main@L3Параметр CABAC формата : ДаПараметр ReFrames формата : 3 кадраИдентификатор кодека : V_MPEG4/ISO/AVCПродолжительность : 1 ч. 52 м.Битрейт : 751 Кбит/секШирина : 720 пикселейВысота : 576 пикселейСоотношение сторон : 16:9Соотношение сторон в оригинале : 16:9Режим частоты кадров : ПостоянныйЧастота кадров : 25,000 кадров/секСтандарт вещания : ComponentЦветовое пространство : YUVСубдискретизация насыщенности : 4:2:0Битовая глубина : 8 битТип развёртки : ЧересстрочнаяПорядок развёртки : Верхнее поле первоеБит/(Пиксели*Кадры) : 0.072Размер потока : 603 Мбайт (84%)Default : ДаForced : Нетcolour_range : LimitedОсновные цвета : BT.601 PALХарактеристики трансфера : BT.470 System B, BT.470 System GКоэффициенты матрицы : BT.601
АудиоИдентификатор : 1Формат : MPEG AudioВерсия формата : Version 1Профиль формата : Layer 2Идентификатор кодека : A_MPEG/L2Идентификатор кодека/Подсказка : MP2Продолжительность : 1 ч. 52 м.Вид битрейта : ПостоянныйБитрейт : 128 Кбит/секКаналы : 2 каналаЧастота : 48,0 КГцМетод сжатия : С потерямиЗадержка видео : -10 мс.Размер потока : 103 Мбайт (14%)Язык : RussianDefault : ДаForced : Нет

Скриншот c названием фильма

Скриншоты


Резервные скриншоты


-[2'501]

To download the content you need:
1. Download and install torrent client [for Windows] or for mobile system
2. Click on [Download]
Attention.
If the test YOU are NOT a ROBOT - does not work, then You are using an outdated browser.
Install the current browser and click on [Download]
Security: torrent client is allowed by Kaspersky.

[en.asmlocator.ru].t4034.torrent 
Torrent: Registered [ 2015-11-30 05:45 ] · 0D6DFD77D24714A1E6CA122CD3557791066E7EB9

Download .torrent

Download

15 KB

Status: checked
Completed: 0 times
Size: 720 MB
terms.php
[Profile] [PM]
Display posts:    
Reply to topic

Current time is: 12-Dec 16:46

All times are UTC ± 0



You cannot post new topics in this forum
You cannot reply to topics in this forum
You cannot edit your posts in this forum
You cannot delete your posts in this forum
You cannot vote in polls in this forum
You cannot attach files in this forum
You can download files in this forum
Верим фактам, а не вранью Путина! Факт, что Правительство ведёт Россию к истреблению.
Так как численность населения падает, даже не смотря на приток эмигрантов!
Русская нация вымирает и вырождается, смешиваясь с эмигрантами!
Факт, что военных и граждан предприятий заставляют голосовать за партию Единая Россия и Путина
ПОД СТРАХОМ УВОЛЬНЕНИЯ!
Нам не нужно Правительство, блокирующее личную жизнь, интернет, нарушающее сохранность данных.
Все эти действия финансируются за счёт народа!