Широко шагая / Walking Tall (Фил Карлсон / Phil Karlson) [1973, США, боевик, криминал, драма, DVDRip] VO (Paul B.) + Original Eng

Reply to topic
DL-List and Torrent activity
Size:  1.77 GB   |    Registered:  4 years   |    Completed:  0 times

Seeder not seen: Never

 
   
 
 
Author Message

star21 ®

Gender: Female

Longevity: 4 years 1 month

Posts: 551946

Location: Екатеринбург

Post 30-Nov-2015 05:50

[Quote]

Широко шагая / Walking Tall
Страна: США
Жанр: боевик, криминал, драма
Год выпуска: 1973
Продолжительность: 02:04:59
Перевод: Одноголосый закадровый Paul B.
Cубтитры: нет
Оригинальная аудиодорожка: английский
Режиссер: Фил Карлсон / Phil Karlson
В ролях: Джо Дон Бейкер, Элизабет Хартман, Ной Берри, Бренда Бене, Брюс Гловер, Фелтон Перри, Розмари Мерфи
Описание: Бывший профессиональный борец Бьюфорд Пассер с женой и двумя детьми возвращается под отчий кров в небольшой городок штата Теннесси, где решает осесть и вести размеренный образ жизни. Но его мечтам не суждено сбыться, поскольку в городе он обнаруживает широко раскинутые сети подпольного игорного бизнеса, бутлегерства и проституции, покрываемые представителями высшей власти. Не в силах смириться с этим, Бьюфорд вступает в борьбу с криминальными городскими структурами, ежедневно подвергая опасности свою жизнь и жизни своих близких.
Доп. информация: Шериф Бьюфорд Пассер сам осуществлял техническую консультацию картины, вероятно, поэтому она и вышла такой достоверной, а великолепное исполнение главной роли Джо Доном Бейкером (критики единодушно называют её лучшей в карьере актёра) делает фильм окончательной и бесповоротной классикой. При бюджете в 500 000 фильм собрал 23 000 000 и обзавёлся двумя продолжениями, где Бейкера сменил Бо Свенсон.


Сэмпл: http://multi-up.com/1060497
Качество видео: DVDRip
Формат видео: AVI
Видео: XVID, 720x384, 1,85:1, 23.976 fps, 1 629 kbps
Аудио: AC-3, 48.0 KHz, 192 kbps, 2 ch
Аудио 2: AC-3, 48.0 KHz, 192 kbps, 2 ch

MediaInfo

C:\Фильмы\Переводы\Walking Tall (1973).avi
General
Complete name : C:\Фильмы\Переводы\Walking Tall (1973).avi
Format : AVI
Format/Info : Audio Video Interleave
File size : 1.77 GiB
Duration : 2h 4mn
Overall bit rate : 2 027 Kbps
Writing application : VirtualDubMod 1.5.10.2 (build 2540/release)
Writing library : VirtualDubMod build 2540/release
Video #0
ID : 0
Format : MPEG-4 Visual
Format profile : Advanced Simple@L5
Format settings, BVOP : 2
Format settings, QPel : No
Format settings, GMC : No warppoints
Format settings, Matrix : Default (H.263)
Codec ID : XVID
Codec ID/Hint : XviD
Duration : 2h 4mn
Bit rate : 1 629 Kbps
Width : 720 pixels
Height : 384 pixels
Display aspect ratio : 1.85:1
Frame rate : 23.976 fps
Color space : YUV
Chroma subsampling : 4:2:0
Bit depth : 8 bits
Scan type : Progressive
Compression mode : Lossy
Bits/(Pixel*Frame) : 0.246
Stream size : 1.42 GiB (80%)
Writing library : XviD 67
Audio #1
ID : 1
Format : AC-3
Format/Info : Audio Coding 3
Mode extension : CM (complete main)
Format settings, Endianness : Big
Codec ID : 2000
Duration : 2h 4mn
Bit rate mode : Constant
Bit rate : 192 Kbps
Channel(s) : 2 channels
Channel positions : Front: L R
Sampling rate : 48.0 KHz
Bit depth : 16 bits
Compression mode : Lossy
Stream size : 172 MiB (9%)
Alignment : Split accross interleaves
Interleave, duration : 42 ms (1.00 video frame)
Interleave, preload duration : 500 ms
Audio #2
ID : 2
Format : AC-3
Format/Info : Audio Coding 3
Mode extension : CM (complete main)
Format settings, Endianness : Big
Codec ID : 2000
Duration : 2h 4mn
Bit rate mode : Constant
Bit rate : 192 Kbps
Channel(s) : 2 channels
Channel positions : Front: L R
Sampling rate : 48.0 KHz
Bit depth : 16 bits
Compression mode : Lossy
Stream size : 172 MiB (9%)
Alignment : Split accross interleaves
Interleave, duration : 42 ms (1.00 video frame)
Interleave, preload duration : 500 ms

Скриншот c названием фильма

Скриншоты

To download the content you need:
1. Download and install torrent client [for Windows] or for mobile system
2. Click on [Download]
Attention.
If the test YOU are NOT a ROBOT - does not work, then You are using an outdated browser.
Install the current browser and click on [Download]
Security: torrent client is allowed by Kaspersky.

[en.asmlocator.ru].t4031.torrent 
Torrent: Registered [ 2015-11-30 05:45 ] · BCC7F0537D2825F3339EF07AE4AE2D5C402D7BF2

Download .torrent

Download

18 KB

Status: checked
Completed: 0 times
Size: 1.77 GB
terms.php
[Profile] [PM]
Display posts:    
Reply to topic

Current time is: 09-Dec 04:50

All times are UTC ± 0



You cannot post new topics in this forum
You cannot reply to topics in this forum
You cannot edit your posts in this forum
You cannot delete your posts in this forum
You cannot vote in polls in this forum
You cannot attach files in this forum
You can download files in this forum
Верим фактам, а не вранью Путина! Факт, что Правительство ведёт Россию к истреблению.
Так как численность населения падает, даже не смотря на приток эмигрантов!
Русская нация вымирает и вырождается, смешиваясь с эмигрантами!
Факт, что военных и граждан предприятий заставляют голосовать за партию Единая Россия и Путина
ПОД СТРАХОМ УВОЛЬНЕНИЯ!
Нам не нужно Правительство, блокирующее личную жизнь, интернет, нарушающее сохранность данных.
Все эти действия финансируются за счёт народа!