Портрет Дориана Грея / The Picture of Dorian Gray (Альберт Левин / Albert Lewin) [1945, США, ужасы, фэнтези, мелодрама, драма, BDRip] MVO (New Dream Media) + Sub Eng + Original Eng

Reply to topic
DL-List and Torrent activity
Size:  1.6 GB   |    Registered:  4 years   |    Completed:  0 times

Seeder not seen: Never

 
   
 
 
Author Message

star21 ®

Gender: Female

Longevity: 4 years 1 month

Posts: 551946

Location: Екатеринбург

Post 30-Nov-2015 05:50

[Quote]

Портрет Дориана Грея / The Picture of Dorian Gray
Страна: США
Жанр: ужасы, фэнтези, мелодрама, драма
Год выпуска: 1945
Продолжительность: 01:50:16
Перевод: Профессиональный (многоголосый закадровый) - New Dream Media (Видеобаза)
Cубтитры: английские, английские (полные)
Оригинальная аудиодорожка: английский

Режиссер: Альберт Левин / Albert Lewin
В ролях: Джордж Сэндерс, Херд Хэтфилд, Донна Рид, Анджела Лэнсбери, Питер Лоуфорд, Лоуелл Гилмор, Ричард Фрайзер, Дуглас Уолтон, Мортон Лоури, Майлз Мандер
Описание: Очаровательный и невинный Дориан Грей в компании циничного Гарри Уоттонома любуется своим великолепным портретом. Ослепленный своей красотой, юноша клянется, что отдаст свою душу за то, чтобы вечно быть молодым. Десятилетиями Дориан, ставший достойным учеником Гарри, хладнокровно наблюдает за тем, как его жестокость губит всех, кто любит его. Он все так же красив и юн, и лишь его портрет обезображивают бесчисленные шрамы порока. Став прекрасным чудовищем, Дориан уже не верит, что однажды ему придется заплатить за свои грехи страшную цену…
Качество видео:
Формат видео: AVI
Видео: 656x480 (1.37:1), 23.976 fps, XviD build 73 ~1624 kbps avg, 0.22 bit/pixel
Аудио: 48 kHz, AC3 Dolby Digital, 2/0 (L,R) ch, ~256 kbps - многоголосый
Аудио: 48 kHz, AC3 Dolby Digital, 2/0 (L,R) ch, ~192 kbps - оригинал (отдельным файлом)

MediaInfo

Общее
Полное имя : H:\The.Picture.of.Dorian.Gray.1945.bdrip_[1.46]_[teko]\The.Picture.of.Dorian.Gray.1945.bdrip_[1.46].avi
Формат : AVI
Формат/Информация : Audio Video Interleave
Размер файла : 1,46 Гбайт
Продолжительность : 1 ч. 50 м.
Общий поток : 1890 Кбит/сек
Программа кодирования : VirtualDubMod 1.5.10.3 | www.virtualdub-fr.org || (build 2550/release)
Библиотека кодирования : VirtualDubMod build 2550/release
Видео
Идентификатор : 0
Формат : MPEG-4 Visual
Профиль формата : Advanced Simple@L5
Параметр BVOP формата : 1
Параметр QPel формата : Нет
Параметр GMC формата : Без точки перехода
Параметр матрицы формата : Выборочная
Идентификатор кодека : XVID
Идентификатор кодека/Подсказка : XviD
Продолжительность : 1 ч. 50 м.
Битрейт : 1624 Кбит/сек
Ширина : 656 пикселей
Высота : 480 пикселей
Соотношение сторон : 4:3
Частота кадров : 23,976 кадра/сек
Цветовое пространство : YUV
Субдискретизация насыщенности : 4:2:0
Битовая глубина : 8 бит
Тип развёртки : Прогрессивная
Метод сжатия : С потерями
Бит/(Пиксели*Кадры) : 0.215
Размер потока : 1,25 Гбайт (86%)
Библиотека кодирования : XviD 73
Аудио
Идентификатор : 1
Формат : AC-3
Формат/Информация : Audio Coding 3
Расширение режима : CM (complete main)
Параметр Endianness формата : Big
Идентификатор кодека : 2000
Продолжительность : 1 ч. 50 м.
Вид битрейта : Постоянный
Битрейт : 256 Кбит/сек
Каналы : 2 канала
Расположение каналов : Front: L R
Частота : 48,0 КГц
Битовая глубина : 16 бит
Метод сжатия : С потерями
Размер потока : 202 Мбайт (14%)
Выравнивание : Разделение по промежуткам
Продолжительность промежутка : 42 мс. (1,00 видеокадр)
Время предзагрузки промежутка : 500 мс.
Релиз группы:
-
-

To download the content you need:
1. Download and install torrent client [for Windows] or for mobile system
2. Click on [Download]
Attention.
If the test YOU are NOT a ROBOT - does not work, then You are using an outdated browser.
Install the current browser and click on [Download]
Security: torrent client is allowed by Kaspersky.

[en.asmlocator.ru].t4030.torrent 
Torrent: Registered [ 2015-11-30 05:45 ] · 0A96482FD043D953C42E6CB002002227F4FCC085

Download .torrent

Download

17 KB

Status: checked
Completed: 0 times
Size: 1.6 GB
terms.php
[Profile] [PM]
Display posts:    
Reply to topic

Current time is: 15-Dec 00:18

All times are UTC ± 0



You cannot post new topics in this forum
You cannot reply to topics in this forum
You cannot edit your posts in this forum
You cannot delete your posts in this forum
You cannot vote in polls in this forum
You cannot attach files in this forum
You can download files in this forum
Верим фактам, а не вранью Путина! Факт, что Правительство ведёт Россию к истреблению.
Так как численность населения падает, даже не смотря на приток эмигрантов!
Русская нация вымирает и вырождается, смешиваясь с эмигрантами!
Факт, что военных и граждан предприятий заставляют голосовать за партию Единая Россия и Путина
ПОД СТРАХОМ УВОЛЬНЕНИЯ!
Нам не нужно Правительство, блокирующее личную жизнь, интернет, нарушающее сохранность данных.
Все эти действия финансируются за счёт народа!