М-р Скеффингтон / Mr. Skeffington (Винсент Шерман / Vincent Sherman) [1944, США, драма, WEB-DLRip] MVO + Sub Rus + Original Eng

Reply to topic
DL-List and Torrent activity
Size:  2.19 GB   |    Registered:  4 years   |    Completed:  0 times

Seeder not seen: Never

 
   
 
 
Author Message

star21 ®

Gender: Female

Longevity: 4 years 1 month

Posts: 551946

Location: Екатеринбург

Post 30-Nov-2015 05:50

[Quote]

М-р Скеффингтон / Mr. Skeffington
Страна: США
Жанр: драма
Год выпуска: 1944
Продолжительность: 02:26:48
Перевод: Профессиональный (многоголосый закадровый)
Cубтитры: русские
Оригинальная аудиодорожка: английский

Режиссер: Винсент Шерман / Vincent Sherman
В ролях: Бетт Дэвис, Клод Рейнс, Уолтер Абель, Джордж Кулурис, Ричард Варинг, Марджори Риордан, Роберт Шэйн, Джон Александр, Джером Кауэн, Джонни Митчелл
Описание: Эгоистичная Фанни любит только своего брата Триппи, который, промотав семейное состояние, взялся за активы фирмы своего босса Джоба Скеффингтона. Светская примадонна Фанни привыкла, что её осаждают толпы поклонников, и когда Джоб, приехав поговорить с мошенником Триппи, сразу же не показывает ей своего расположения, сама пытается его завоевать, одновременно спасая брата и теша своё самолюбие.
В последующие годы (за которые начинаются и оканчиваются две Мировые войны, вводят и отменяют Сухой закон, наступает и отступает Великая депрессия) Фанни остаётся самой собой. Её осаждают поклонники, за её спиной шепчутся завистницы, а где-то далеко, в Европе, растёт её дочь и работает бывший муж. Кажется, что годы над Фанни не властны, но одно печальное происшествие всё меняет...
--Субтитры из исходного WEB-DL. Русская и английская дорога из раздачи . Подогнано без пересжатия.--Качество видео: WEB-DLRip [Mr.Skeffington.1944.720p.WEB-DL.Rus.Ukr.SUBBED.Eng.HDCLUB.mkv]
Формат видео: AVI
Видео: 640x480 (1.33:1), 23.976 fps, XviD build 73 ~1742 kbps avg, 0.24 bit/pixel
Аудио: 48 kHz, AC3 Dolby Digital, 2/0 (L,R) ch, ~192 kbps - многоголосый
Аудио: 48 kHz, AC3 Dolby Digital, 2/0 (L,R) ch, ~192 kbps - оригинал

Сравнение

просьба не поглощать старую раздачу. Там без оригинала размер 1.45, к тому же раздача является первоисточником русской дороги
http://screenshotcomparison.com/comparison/136889

MediaInfo

Общее
Полное имя : H:\Mr.Skeffington.1944.web-dlrip_[2.18]_[teko]\Mr.Skeffington.1944.web-dlrip_[2.18].avi
Формат : AVI
Формат/Информация : Audio Video Interleave
Профиль формата : OpenDML
Размер файла : 2,19 Гбайт
Продолжительность : 2 ч. 26 м.
Общий поток : 2132 Кбит/сек
Программа кодирования : VirtualDubMod 1.5.10.3 | www.virtualdub-fr.org || (build 2550/release)
Библиотека кодирования : VirtualDubMod build 2550/release
Видео
Идентификатор : 0
Формат : MPEG-4 Visual
Профиль формата : Advanced Simple@L5
Параметр BVOP формата : 1
Параметр QPel формата : Нет
Параметр GMC формата : Без точки перехода
Параметр матрицы формата : Выборочная
Идентификатор кодека : XVID
Идентификатор кодека/Подсказка : XviD
Продолжительность : 2 ч. 26 м.
Битрейт : 1731 Кбит/сек
Ширина : 640 пикселей
Высота : 480 пикселей
Соотношение сторон : 4:3
Частота кадров : 23,976 кадра/сек
Цветовое пространство : YUV
Субдискретизация насыщенности : 4:2:0
Битовая глубина : 8 бит
Тип развёртки : Прогрессивная
Метод сжатия : С потерями
Бит/(Пиксели*Кадры) : 0.235
Размер потока : 1,78 Гбайт (81%)
Библиотека кодирования : XviD 73
Аудио #1
Идентификатор : 1
Формат : AC-3
Формат/Информация : Audio Coding 3
Расширение режима : CM (complete main)
Параметр Endianness формата : Big
Идентификатор кодека : 2000
Продолжительность : 2 ч. 26 м.
Вид битрейта : Постоянный
Битрейт : 192 Кбит/сек
Каналы : 2 канала
Расположение каналов : Front: L R
Частота : 48,0 КГц
Битовая глубина : 16 бит
Метод сжатия : С потерями
Задержка видео : 8 мс.
Размер потока : 201 Мбайт (9%)
Выравнивание : Разделение по промежуткам
Продолжительность промежутка : 42 мс. (1,00 видеокадр)
Время предзагрузки промежутка : 500 мс.
Аудио #2
Идентификатор : 2
Формат : AC-3
Формат/Информация : Audio Coding 3
Расширение режима : CM (complete main)
Параметр Endianness формата : Big
Идентификатор кодека : 2000
Продолжительность : 2 ч. 26 м.
Вид битрейта : Постоянный
Битрейт : 192 Кбит/сек
Каналы : 2 канала
Расположение каналов : Front: L R
Частота : 48,0 КГц
Битовая глубина : 16 бит
Метод сжатия : С потерями
Задержка видео : 8 мс.
Размер потока : 201 Мбайт (9%)
Выравнивание : Разделение по промежуткам
Продолжительность промежутка : 42 мс. (1,00 видеокадр)
Время предзагрузки промежутка : 500 мс.
Релиз группы:
-
-

To download the content you need:
1. Download and install torrent client [for Windows] or for mobile system
2. Click on [Download]
Attention.
If the test YOU are NOT a ROBOT - does not work, then You are using an outdated browser.
Install the current browser and click on [Download]
Security: torrent client is allowed by Kaspersky.

[en.asmlocator.ru].t4029.torrent 
Torrent: Registered [ 2015-11-30 05:45 ] · 7C430E6047642AD3D951FD0EF237BA16D05ED149

Download .torrent

Download

12 KB

Status: checked
Completed: 0 times
Size: 2.19 GB
terms.php
[Profile] [PM]
Display posts:    
Reply to topic

Current time is: 08-Dec 16:07

All times are UTC ± 0



You cannot post new topics in this forum
You cannot reply to topics in this forum
You cannot edit your posts in this forum
You cannot delete your posts in this forum
You cannot vote in polls in this forum
You cannot attach files in this forum
You can download files in this forum
Верим фактам, а не вранью Путина! Факт, что Правительство ведёт Россию к истреблению.
Так как численность населения падает, даже не смотря на приток эмигрантов!
Русская нация вымирает и вырождается, смешиваясь с эмигрантами!
Факт, что военных и граждан предприятий заставляют голосовать за партию Единая Россия и Путина
ПОД СТРАХОМ УВОЛЬНЕНИЯ!
Нам не нужно Правительство, блокирующее личную жизнь, интернет, нарушающее сохранность данных.
Все эти действия финансируются за счёт народа!