Унесенные ветром / Gone with the Wind (Виктор Флеминг / Victor Fleming, Джордж Кьюкор / George Cukor, Сэм Вуд / Sam Wood) [1939, США, Мелодрама, BDRip] AVO (Андрей Гаврилов) + Original Eng

Reply to topic
DL-List and Torrent activity
Size:  4.37 GB   |    Registered:  4 years   |    Completed:  0 times

Seeder not seen: Never

 
   
 
 
Author Message

star21 ®

Gender: Female

Longevity: 4 years 1 month

Posts: 551946

Location: Екатеринбург

Post 30-Nov-2015 05:50

[Quote]

Унесенные ветром / Gone with the Wind
Страна: США
Жанр: Мелодрама
Год выпуска: 1939
Продолжительность: 03:53:14
Перевод: Авторский (одноголосый закадровый) Андрей Гаврилов
Cубтитры: нет
Оригинальная аудиодорожка: английский
Режиссер: Виктор Флеминг / Victor Fleming, Джордж Кьюкор / George Cukor, Сэм Вуд / Sam Wood
В ролях: Вивьен Ли, Кларк Гейбл, Лесли Говард, Оливия Де Хэвилленд, Оскар Полк, Хэтти МакДэниел, Эверетт Браун, Томас Митчелл, Барбара О’Нил, Эвелин Кийес
Описание: Могучие ветры Гражданской войны в один миг уносят беззаботную юность южанки Скарлетт О`Хара, когда привычный шум балов сменяется грохотом канонад на подступах к родному дому. Для молодой женщины, вынужденной бороться за новую жизнь на разоренной земле, испытания и лишения становятся шансом переосмыслить идеалы, обрести веру в себя и найти настоящую любовь.
Доп. информация: Дорожка с переводом А. Гаврилова синхронизирована, ремастерирована и наложена ale_x2008 при помощи Adobe Audition, iZotope RX2, Sony Vegas и VirtualDubMod.
За предоставленную звуковую дорожку и за активное участие благодарим - DeASS

Сэмпл: https://yadi.sk/i/lwwx6ME7iAjMo
Качество видео: BDRip (Видеоряд с HQCLUB) (источник: MaLLIeHbKa /Blu-Ray Disc /1080p)
Формат видео: AVI
Видео: XviD build 50, 720x528 (1.36:1), 23.976 fps, 2097 kbps avg, 0.23 bit/pixel
Аудио: AC3 Dolby Digital, 48000Hz, 1/0 (L,R) ch, 192.00 kbps avg
Аудио 2: 48 kHz, AC3 Dolby Digital, 3/2 (L,C,R,l,r) + LFE ch, ~384.00 kbps avg Eng

MediaInfo

Унесенные ветром - Gone with the Wind [by ale_x2008].avi
Format : AVI
Format/Info : Audio Video Interleave
Format profile : OpenDML
File size : 4.37 GiB
Duration : 3h 53mn
Overall bit rate : 2 684 Kbps
Movie name : Unesennye vetrom (1939) BDRip
Director : ale_x2008 | KalliostroV
Writing application : VirtualDubMod 1.5.10.2 (build 2540/release)
Copyright : Edich2
Comment : RuTracker.org
Video
ID : 0
Format : MPEG-4 Visual
Format profile : Advanced Simple@L5
Format settings, BVOP : 1
Format settings, QPel : No
Format settings, GMC : No warppoints
Format settings, Matrix : Custom
Codec ID : XVID
Codec ID/Hint : XviD
Duration : 3h 53mn
Bit rate : 2 095 Kbps
Width : 720 pixels
Height : 528 pixels
Display aspect ratio : 4:3
Frame rate : 23.976 fps
Color space : YUV
Chroma subsampling : 4:2:0
Bit depth : 8 bits
Scan type : Progressive
Compression mode : Lossy
Bits/(Pixel*Frame) : 0.230
Stream size : 3.41 GiB (78%)
Writing library : XviD 1.2.1 (UTC 2008-12-04)
Audio #1
ID : 1
Format : AC-3
Format/Info : Audio Coding 3
Mode extension : CM (complete main)
Format settings, Endianness : Big
Codec ID : 2000
Duration : 3h 53mn
Bit rate mode : Constant
Bit rate : 192 Kbps
Channel(s) : 1 channel
Channel positions : Front: C
Sampling rate : 48.0 KHz
Bit depth : 16 bits
Compression mode : Lossy
Stream size : 320 MiB (7%)
Alignment : Split accross interleaves
Interleave, duration : 42 ms (1.00 video frame)
Interleave, preload duration : 500 ms
Audio #2
ID : 2
Format : AC-3
Format/Info : Audio Coding 3
Mode extension : CM (complete main)
Format settings, Endianness : Big
Codec ID : 2000
Duration : 3h 53mn
Bit rate mode : Constant
Bit rate : 384 Kbps
Channel(s) : 6 channels
Channel positions : Front: L C R, Side: L R, LFE
Sampling rate : 48.0 KHz
Bit depth : 16 bits
Compression mode : Lossy
Stream size : 641 MiB (14%)
Alignment : Split accross interleaves
Interleave, duration : 42 ms (1.00 video frame)
Interleave, preload duration : 500 ms

Скриншоты


To download the content you need:
1. Download and install torrent client [for Windows] or for mobile system
2. Click on [Download]
Attention.
If the test YOU are NOT a ROBOT - does not work, then You are using an outdated browser.
Install the current browser and click on [Download]
Security: torrent client is allowed by Kaspersky.

[en.asmlocator.ru].t4028.torrent 
Torrent: Registered [ 2015-11-30 05:45 ] · 058921CF598BFD0EB76F91E69872410DB1A98854

Download .torrent

Download

22 KB

Status: checked
Completed: 0 times
Size: 4.37 GB
terms.php
[Profile] [PM]
Display posts:    
Reply to topic

Current time is: 12-Dec 04:32

All times are UTC ± 0



You cannot post new topics in this forum
You cannot reply to topics in this forum
You cannot edit your posts in this forum
You cannot delete your posts in this forum
You cannot vote in polls in this forum
You cannot attach files in this forum
You can download files in this forum
Верим фактам, а не вранью Путина! Факт, что Правительство ведёт Россию к истреблению.
Так как численность населения падает, даже не смотря на приток эмигрантов!
Русская нация вымирает и вырождается, смешиваясь с эмигрантами!
Факт, что военных и граждан предприятий заставляют голосовать за партию Единая Россия и Путина
ПОД СТРАХОМ УВОЛЬНЕНИЯ!
Нам не нужно Правительство, блокирующее личную жизнь, интернет, нарушающее сохранность данных.
Все эти действия финансируются за счёт народа!