Задай им жару / Ca va barder (Джон Берри / John Berry) [1955, Франция, Италия, боевик, детектив, комедия, DVDRip] Sub Rus (Северный) + Original Fre

Reply to topic
DL-List and Torrent activity
Size:  1.36 GB   |    Registered:  4 years   |    Completed:  0 times

Seeder not seen: 1 year 9 months

 
   
 
 
Author Message

star21 ®

Gender: Female

Longevity: 4 years 1 month

Posts: 551946

Location: Екатеринбург

Post 30-Nov-2015 05:50

[Quote]

Задай им жару / Ça va barder Страна: Франция, Италия
Жанр: боевик, детектив, комедия
Год выпуска: 1955
Продолжительность: 01:33:04
Перевод: Субтитры Северный
Cубтитры: русские
Оригинальная аудиодорожка: французский
Режиссер: Джон Берри / John Berry
В ролях: Эдди Константин, Мэй Бритт, Жан Карме, Жан Дане, Лила Рокко, Моника ван Вурен, Роже Саге, Ирена Гальтер, Клеман Арари, Жерар Хоффман, Пьер Брис
Описание: Предприимчивый судовладелец Морено занимается продажей оружия в страны третьего мира. Однажды во время плавания его груз похищают неизвестные под видом таможенников. Решив разобраться в сложившейся ситуации и наказать обидчиков, Морено нанимает разбитного парня Джонни Джордана (Эдди Константин), чтобы тот провел частное расследование и выяснил, кто стоит за похищением ящиков с оружием.
Доп. информация: В этом фильме, в небольшой роли, впервые появляется на экране недавно ушедший от нас Пьер Брис. Раздача посвящается светлой памяти замечательного актера.
Сэмпл: http://multi-up.com/1060663
Качество видео: DVDRip
Формат видео: AVI
Видео: 688x512 (1.34:1), 25 fps, XviD build 47 ~1885 kbps avg, 0.21 bit/pixel
Аудио: 48 kHz, AC3 Dolby Digital, 2/0 (L,R) ch, ~192 kbps
Формат субтитров: softsub (SRT)

MediaInfo

Format : AVI
Format/Info : Audio Video Interleave
File size : 1.36 GiB
Duration : 1h 33mn
Overall bit rate : 2 087 Kbps
Video
ID : 0
Format : MPEG-4 Visual
Format profile : Advanced Simple@L5
Format settings, BVOP : 1
Format settings, QPel : No
Format settings, GMC : No warppoints
Format settings, Matrix : Default (MPEG)
Codec ID : XVID
Codec ID/Hint : XviD
Duration : 1h 33mn
Bit rate : 1 885 Kbps
Width : 688 pixels
Height : 512 pixels
Display aspect ratio : 4:3
Frame rate : 25.000 fps
Color space : YUV
Chroma subsampling : 4:2:0
Bit depth : 8 bits
Scan type : Progressive
Compression mode : Lossy
Bits/(Pixel*Frame) : 0.214
Stream size : 1.23 GiB (90%)
Writing library : XviD 1.2.0.dev47 (UTC 2006-11-01)
Audio
ID : 1
Format : AC-3
Format/Info : Audio Coding 3
Mode extension : CM (complete main)
Format settings, Endianness : Big
Codec ID : 2000
Duration : 1h 33mn
Bit rate mode : Constant
Bit rate : 192 Kbps
Channel(s) : 2 channels
Channel positions : Front: L R
Sampling rate : 48.0 KHz
Bit depth : 16 bits
Compression mode : Lossy
Stream size : 128 MiB (9%)
Alignment : Split accross interleaves
Interleave, duration : 40 ms (1.00 video frame)
Interleave, preload duration : 500 ms

Скриншот c названием фильма

Пример субтитров

1
00:00:15,785 --> 00:00:18,464
<b>Задай им жару</b>
2
00:01:03,464 --> 00:01:04,837
Плати, щёголь!
3
00:01:31,082 --> 00:01:33,316
- Кости не сломаны?
- Порядок, спасибо.
4
00:01:33,436 --> 00:01:35,172
Вы пришли как раз вовремя!
5
00:01:35,675 --> 00:01:37,663
- Не нужно.
- Правда?
6
00:01:38,280 --> 00:01:40,472
Спрячьте это, у района
плохая репутация.
7
00:01:40,700 --> 00:01:44,431
- Тогда зачем вы здесь?
- Я здоров как бык и терять мне нечего.
8
00:01:44,552 --> 00:01:47,820
А я развалина и терять есть
много что! Мы можем стать командой.
9
00:01:48,021 --> 00:01:50,526
- Что вы задумали?
- Вам понравится.
10
00:01:50,851 --> 00:01:54,072
Завтра в 10 часов, отель Метрополь.
По рукам?
11
00:01:54,868 --> 00:01:55,871
Ладно.
12
00:02:01,684 --> 00:02:04,576
- Ну, значит, до завтра, месье...
- Джон. Джонни Джордан.
13
00:02:05,055 --> 00:02:07,150
Спокойной ночи, Джонни.
Берегите себя.
14
00:02:07,534 --> 00:02:10,276
Не волнуйтесь, я уже не один.
15
00:02:13,422 --> 00:02:15,049
Спокойной ночи, месье Морено.
16
00:02:16,456 --> 00:02:17,701
Спокойной ночи.
17
00:02:24,539 --> 00:02:26,958
- Сработало, да?
- Проще пареной репы.
18
00:02:30,981 --> 00:02:34,445
- Но можно было и позволить мне сбежать с кошельком.
- Ты нервничал.
19
00:02:36,066 --> 00:02:38,526
Вообще, мог бы так сильно и не бить.
20
00:02:38,748 --> 00:02:41,814
Мне нужна новая рубашка.
Завтра у меня встреча.
21
00:02:50,663 --> 00:02:52,914
- Месье Морено.
- Вы месье Джордан?
Огромное спасибо Северному за перевод фильма!

To download the content you need:
1. Download and install torrent client [for Windows] or for mobile system
2. Click on [Download]
Attention.
If the test YOU are NOT a ROBOT - does not work, then You are using an outdated browser.
Install the current browser and click on [Download]
Security: torrent client is allowed by Kaspersky.

[en.asmlocator.ru].t4027.torrent 
Torrent: Registered [ 2015-11-30 05:45 ] · 811432A7DD5F9C8FFB7174BECD20060CEABCF764

Download .torrent

Download

14 KB

Status: checked
Completed: 0 times
Size: 1.36 GB
terms.php
[Profile] [PM]
Display posts:    
Reply to topic

Current time is: 09-Dec 04:20

All times are UTC ± 0



You cannot post new topics in this forum
You cannot reply to topics in this forum
You cannot edit your posts in this forum
You cannot delete your posts in this forum
You cannot vote in polls in this forum
You cannot attach files in this forum
You can download files in this forum
Верим фактам, а не вранью Путина! Факт, что Правительство ведёт Россию к истреблению.
Так как численность населения падает, даже не смотря на приток эмигрантов!
Русская нация вымирает и вырождается, смешиваясь с эмигрантами!
Факт, что военных и граждан предприятий заставляют голосовать за партию Единая Россия и Путина
ПОД СТРАХОМ УВОЛЬНЕНИЯ!
Нам не нужно Правительство, блокирующее личную жизнь, интернет, нарушающее сохранность данных.
Все эти действия финансируются за счёт народа!