Джон Пол Джонс / John Paul Jones (Джон Фэрроу / John Farrow) [1959, США, история, приключения, биография, DVDRip] VO (SATKUR) + Original Eng

Reply to topic
DL-List and Torrent activity
Size:  1.63 GB   |    Registered:  4 years   |    Completed:  0 times

Seeder not seen: Never

 
   
 
 
Author Message

star21 ®

Gender: Female

Longevity: 4 years 1 month

Posts: 551946

Location: Екатеринбург

Post 30-Nov-2015 05:49

[Quote]

Джон Пол Джонс / John Paul Jones
Страна: США
Жанр: история, приключения, биография
Год выпуска: 1959
Продолжительность: 02:05:59
Перевод: Одноголосый закадровый SATKUR
Cубтитры: нет
Оригинальная аудиодорожка: английский
Режиссер: Джон Фэрроу / John Farrow
В ролях: Роберт Стэк, Мариса Паван, Чарльз Коберн, Эрин О’Брайэн, Бетт Дэвис, МакДональд Кэри, Жан-Пьер Омон, Дэвид Фаррар, Питер Кушинг, Сюзанна Каналес
Описание: Повествование этой эпической ленты начинается в 1764 и заканчивается в 1792 году, действие происходит в Вест-Индии, Англии, США, Франции и Российской империи.
Джон Пол Джонс впервые вышел в море, когда ему едва исполнилось 13 лет. К 17 годам он уже стал опытным штурманом. В 26 лет он уже капитан корабля, ходящего в Вест-Индию. Позднее Джон Пол Джонс сражается на стороне американцев в их борьбе за независимость своей страны, захватывает 18 английских судов у острова Ньюфаундленд и переправляет их груз генералу Вашингтону. Вскоре Джордж Вашингтон отправляет отважного моряка во Францию, где лично для него и его команды строят новое судно, на котором он совершает военные вылазки в Англию. В конце 1780-х годов Джон Пол Джонс приглашён на службу в Россию, ко двору императрицы Екатерины Второй.
Доп. информация: Озвучено по субтитрам Антона Каптелова, источник:
Сэмпл: http://multi-up.com/1060747
Качество видео: DVDRip
Формат видео: AVI
Видео: 704x288 (2.44:1), 23.976 fps, XviD build 47 ~1454 kbps avg, 0.30 bit/pixel
Аудио 1: Аудио 1: 48 kHz, AC3 Dolby Digital, 2/0 (L,R) ch, ~192.00 kbps - русский
Аудио 2: Аудио 1: 48 kHz, AC3 Dolby Digital, 2/0 (L,R) ch, ~192.00 kbps - английский

MediaInfo

Общее
Полное имя : F:\FILMY\FILM-2015\Disk-97\John.Paul.Jones.1959.USA.[vo.satkur+eng].AC3.Rus\John.Paul.Jones.1959.USA.[vo.satkur+eng].AC3.Rus.avi
Формат : AVI
Формат/Информация : Audio Video Interleave
Размер файла : 1,63 Гбайт
Продолжительность : 2 ч. 5 м.
Общий поток : 1853 Кбит/сек
Программа кодирования : VirtualDubModRus 1.5.10.2 (build 2542/release)
Библиотека кодирования : VirtualDubMod build 2542/release
Видео
Идентификатор : 0
Формат : MPEG-4 Visual
Профиль формата : Advanced Simple@L5
Параметр BVOP формата : 1
Параметр QPel формата : Нет
Параметр GMC формата : Без точки перехода
Параметр матрицы формата : Default (MPEG)
Идентификатор кодека : XVID
Идентификатор кодека/Подсказка : XviD
Продолжительность : 2 ч. 5 м.
Битрейт : 1454 Кбит/сек
Ширина : 704 пикселя
Высота : 288 пикселей
Соотношение сторон : 2,40:1
Частота кадров : 23,976 кадра/сек
Цветовое пространство : YUV
Субдискретизация насыщенности : 4:2:0
Битовая глубина : 8 бит
Тип развёртки : Прогрессивная
Метод сжатия : С потерями
Бит/(Пиксели*Кадры) : 0.299
Размер потока : 1,28 Гбайт (79%)
Библиотека кодирования : XviD 1.2.0.dev47 (UTC 2006-11-01)
Аудио #1
Идентификатор : 1
Формат : AC-3
Формат/Информация : Audio Coding 3
Расширение режима : CM (complete main)
Параметр Endianness формата : Big
Идентификатор кодека : 2000
Продолжительность : 2 ч. 5 м.
Вид битрейта : Постоянный
Битрейт : 192 Кбит/сек
Каналы : 2 канала
Расположение каналов : Front: L R
Частота : 48,0 КГц
Битовая глубина : 16 бит
Метод сжатия : С потерями
Размер потока : 173 Мбайт (10%)
Выравнивание : Разделение по промежуткам
Продолжительность промежутка : 42 мс. (1,00 видеокадр)
Время предзагрузки промежутка : 500 мс.
Аудио #2
Идентификатор : 2
Формат : AC-3
Формат/Информация : Audio Coding 3
Расширение режима : CM (complete main)
Параметр Endianness формата : Big
Идентификатор кодека : 2000
Продолжительность : 2 ч. 5 м.
Вид битрейта : Постоянный
Битрейт : 192 Кбит/сек
Каналы : 2 канала
Расположение каналов : Front: L R
Частота : 48,0 КГц
Битовая глубина : 16 бит
Метод сжатия : С потерями
Размер потока : 173 Мбайт (10%)
Выравнивание : Разделение по промежуткам
Продолжительность промежутка : 42 мс. (1,00 видеокадр)
Время предзагрузки промежутка : 500 мс.

Скриншот c названием фильма

To download the content you need:
1. Download and install torrent client [for Windows] or for mobile system
2. Click on [Download]
Attention.
If the test YOU are NOT a ROBOT - does not work, then You are using an outdated browser.
Install the current browser and click on [Download]
Security: torrent client is allowed by Kaspersky.

[en.asmlocator.ru].t4025.torrent 
Torrent: Registered [ 2015-11-30 05:45 ] · 362732DD9AC8E942B0FF6A891525054AA5F29C3E

Download .torrent

Download

17 KB

Status: checked
Completed: 0 times
Size: 1.63 GB
terms.php
[Profile] [PM]
Display posts:    
Reply to topic

Current time is: 05-Dec 14:59

All times are UTC ± 0



You cannot post new topics in this forum
You cannot reply to topics in this forum
You cannot edit your posts in this forum
You cannot delete your posts in this forum
You cannot vote in polls in this forum
You cannot attach files in this forum
You can download files in this forum
Верим фактам, а не вранью Путина! Факт, что Правительство ведёт Россию к истреблению.
Так как численность населения падает, даже не смотря на приток эмигрантов!
Русская нация вымирает и вырождается, смешиваясь с эмигрантами!
Факт, что военных и граждан предприятий заставляют голосовать за партию Единая Россия и Путина
ПОД СТРАХОМ УВОЛЬНЕНИЯ!
Нам не нужно Правительство, блокирующее личную жизнь, интернет, нарушающее сохранность данных.
Все эти действия финансируются за счёт народа!