Ярость в небесах / Rage in Heaven (В.С. Ван Дайк / W.S. Van Dyke, Роберт Б. Синклер / Robert B. Sinclair, Ричард Торп / Richard Thorpe) [1941, США, триллер, драма, DVDRip] VO (Алексей Яковлев) + Original Eng

Reply to topic
DL-List and Torrent activity
Size:  775 MB   |    Registered:  4 years   |    Completed:  0 times

Seeder not seen: Never

 
   
 
 
Author Message

star21 ®

Gender: Female

Longevity: 4 years 1 month

Posts: 551946

Location: Екатеринбург

Post 30-Nov-2015 05:49

[Quote]

Ярость в небесах / Rage in Heaven
Страна: США
Жанр: триллер, драма
Год выпуска: 1941
Продолжительность: 01:24:44
Перевод: Одноголосый закадровый -
Cубтитры: нет
Оригинальная аудиодорожка: английский
Режиссеры: В.С. Ван Дайк / W.S. Van Dyke, Роберт Б. Синклер / Robert B. Sinclair, Ричард Торп / Richard Thorpe
Композитор: Бронислав Капер / Bronislau Kaper
В ролях: Роберт Монтгомери / Robert Montgomery ... Philip Monrell
Ингрид Бергман / Ingrid Bergman ... Stella Bergen
Джордж Сандерс / George Sanders ... Ward Andrews
Люсиль Уотсон / Lucile Watson ... Mrs. Monrell
Оскар Хомолка / Oskar Homolka (в титрах: Oscar Homolka) ... Dr. Rameau
Филип Меривэйл / Philip Merivale ... Mr. Higgins
Мэттью Болтон / Matthew Boulton ... Ramsbotham
Обри Мэтер / Aubrey Mather ... Clark
Фредерик Уорлок / Frederick Worlock (в титрах: Frederic Worlock) ... Solicitor-General
Френсис Комптон / Francis Compton ... Bardsley
Гилберт Эмери / Gilbert Emery ... Mr. Black
Людвиг Хардт / Ludwig Hardt (в титрах: Ludwig Hart) ... Durand

Описание: Экранизация романа Джеймса Хилтона "Истоки возмездия" ("The Dawn of Reckoning").
Филип Монрелл приглашает своего друга по колледжу Уорда Эндрюса погостить в доме своей матери. Там они встречают секретаршу матери Филипа Стеллу Берген. Оба одновременно влюбляются в девушку. Стелле больше нравится ответственный и трудолюбивый Уорд, но замуж она выходит за легкомысленного Филипа. Скоро у Филипа начинают проявляться неконтролируемые приступы ревности...
Дополнительная информация:
- В.С. ван Дайк перенял режиссёрское кресло от Роберта Б. Синклера, который заболел вскоре после того, как начались съёмки. Ван Дайк служил морской пехоте, и ему был предоставлен 14-дневный отпуск, чтобы закончить картину. Ни Синклер, ни Ван Дайк не были доступны для переснятия некоторых сцен и окончательного монтажа фильма. Для этого был приглашен Ричард Торп.--Раздача посвящается предстоящему 100-летнему юбилею блистательной Ингрид Бергман.(29 августа, 1915 - 29 августа, 1982)--БОЛЬШОЕ СПАСИБО:
Работа со звуком и реавторинг DVD -
Перевод и озвучивание фильма -
Также Большое Спасибо всем, кто принял участие в появлении озвучки к этому фильму:
Магда, Lafajet, jasenka, елена 22, yanaelisa, atomic dragonfly, and76ss, Ugo927, leoder, duum100, борюська, mumzik69, surzhoks, voostorg, erfv, GalaUkr, Wrobel, spartakeynoir
-----
-
--Сэмпл: http://multi-up.com/1060791
Качество видео: DVDRip
Формат видео: AVI
Видео: XviD, 512x384 (4:3), 23.976 fps, 1014 Kbps
Аудио 1: MP3, 48.0 KHz, 2 ch., 128 Kbps (русский одноголосый закадровый перевод) - Алексей Яковлев
Аудио 2: MP3, 48.0 KHz, 2 ch., 128 Kbps (оригинальная английская звуковая дорожка, лежит отдельно)
(см. "Программы для работы с контейнерами" - > "VirtualDub" или "AVI-Mux")

MediaInfo

AVI-файл:
Общее
Полное имя : F:\раздачи\Rage in Heaven 1941 700MB\Rage in Heaven.avi
Формат : AVI
Формат/Информация : Audio Video Interleave
Размер файла : 698 Мбайт
Продолжительность : 1 ч. 24 м.
Общий поток : 1151 Кбит/сек
Программа кодирования : VirtualDubMod 1.5.10.3 | www.virtualdub-fr.org || (build 2550/release)
Библиотека кодирования : VirtualDubMod build 2550/release
Видео
Идентификатор : 0
Формат : MPEG-4 Visual
Профиль формата : Advanced Simple@L5
Параметр BVOP формата : 2
Параметр QPel формата : Нет
Параметр GMC формата : Без точки перехода
Параметр матрицы формата : Default (H.263)
Идентификатор кодека : DX50
Идентификатор кодека/Подсказка : DivX 5
Продолжительность : 1 ч. 24 м.
Битрейт : 1014 Кбит/сек
Ширина : 512 пикселей
Высота : 384 пикселя
Соотношение сторон : 4:3
Частота кадров : 23,976 кадра/сек
Цветовое пространство : YUV
Субдискретизация насыщенности : 4:2:0
Битовая глубина : 8 бит
Тип развёртки : Прогрессивная
Метод сжатия : С потерями
Бит/(Пиксели*Кадры) : 0.215
Размер потока : 614 Мбайт (88%)
Библиотека кодирования : XviD 73
Аудио
Идентификатор : 1
Формат : MPEG Audio
Версия формата : Version 1
Профиль формата : Layer 3
Идентификатор кодека : 55
Идентификатор кодека/Подсказка : MP3
Продолжительность : 1 ч. 24 м.
Вид битрейта : Постоянный
Битрейт : 128 Кбит/сек
Каналы : 2 канала
Частота : 48,0 КГц
Метод сжатия : С потерями
Размер потока : 77,6 Мбайт (11%)
Выравнивание : Соединение по промежуткам
Продолжительность промежутка : 42 мс. (1,00 видеокадр)
Время предзагрузки промежутка : 504 мс.
Библиотека кодирования : LAME3.99r
Настройки программы : -m s -V 4 -q 0 -lowpass 17 -b 128
английская оригинальная звуковая дорожка, лежит отдельно:
Общее
Полное имя : F:\раздачи\Rage in Heaven 1941 700MB\Rage in Heaven.ENG.mp3
Формат : MPEG Audio
Размер файла : 77,6 Мбайт
Продолжительность : 1 ч. 24 м.
Режим общего битрейта : Постоянный
Общий поток : 128 Кбит/сек
Библиотека кодирования : LAME3.99r
Аудио
Формат : MPEG Audio
Версия формата : Version 1
Профиль формата : Layer 3
Продолжительность : 1 ч. 24 м.
Вид битрейта : Постоянный
Битрейт : 128 Кбит/сек
Каналы : 2 канала
Частота : 48,0 КГц
Метод сжатия : С потерями
Размер потока : 77,6 Мбайт (100%)
Библиотека кодирования : LAME3.99r
Настройки программы : -m s -V 4 -q 0 -lowpass 17 -b 128

Исходник

To download the content you need:
1. Download and install torrent client [for Windows] or for mobile system
2. Click on [Download]
Attention.
If the test YOU are NOT a ROBOT - does not work, then You are using an outdated browser.
Install the current browser and click on [Download]
Security: torrent client is allowed by Kaspersky.

[en.asmlocator.ru].t4022.torrent 
Torrent: Registered [ 2015-11-30 05:45 ] · DB25DDB9FF997B2D236DD823720C4D4B4EA7B9AE

Download .torrent

Download

16 KB

Status: checked
Completed: 0 times
Size: 775 MB
terms.php
[Profile] [PM]
Display posts:    
Reply to topic

Current time is: 14-Dec 23:22

All times are UTC ± 0



You cannot post new topics in this forum
You cannot reply to topics in this forum
You cannot edit your posts in this forum
You cannot delete your posts in this forum
You cannot vote in polls in this forum
You cannot attach files in this forum
You can download files in this forum
Верим фактам, а не вранью Путина! Факт, что Правительство ведёт Россию к истреблению.
Так как численность населения падает, даже не смотря на приток эмигрантов!
Русская нация вымирает и вырождается, смешиваясь с эмигрантами!
Факт, что военных и граждан предприятий заставляют голосовать за партию Единая Россия и Путина
ПОД СТРАХОМ УВОЛЬНЕНИЯ!
Нам не нужно Правительство, блокирующее личную жизнь, интернет, нарушающее сохранность данных.
Все эти действия финансируются за счёт народа!