Семь смертных грехов / Les sept peches capitaux (Филипп де Брока / Philippe de Broca, Клод Шаброль / Claude Chabrol и др.) [1962, Италия, Франция, комедия, VHSRip] VO (SATKUR) + Original Fre

Reply to topic
DL-List and Torrent activity
Size:  1.68 GB   |    Registered:  4 years   |    Completed:  0 times

Seeder not seen: Never

 
   
 
 
Author Message

star21 ®

Gender: Female

Longevity: 4 years 1 month

Posts: 551946

Location: Екатеринбург

Post 30-Nov-2015 05:49

[Quote]

Семь смертных грехов / Les sept peches capitaux
Страна: Италия, Франция
Жанр: Комедия
Год выпуска: 1962
Продолжительность: 01:53:29
Перевод: Одноголосый закадровый SATKUR
Cубтитры: нет
Оригинальная аудиодорожка: французский
Режиссер: Филипп де Брока / Philippe de Broca , Клод Шаброль / Claude Chabrol, Эжен Ионеско / Eugène Ionesco, Жан-Люк Годар / Jean-Luc Godard, Эдуар Молинаро / édouard Molinaro, Роже Вадим / Roger Vadim, Жак Деми / Jacques Demy
В ролях: Жан-Пьер Кассель, Клод Риш, Жан-Клод Бриали, Дани Саваль, Клод Брассёр, Жорж Вильсон, Поль Пребуа, Жан Десайи, Мишлин Прель, Лоран Терзиефф, Жан-Луи Трентиньян, Эдди Константин, Марина Влади, Сами Фре, Жан-Пьер Омон, Клодин Ожье
Описание: Фильм состоит из семи новелл, снятых мэтрами мирового кинематографа. В каждой из них в комедийном ключе рассказывается об одном из семи смертных грехов: алчности, зависти, чревоугодии, похоти, лени, гордыне и гневе.
Доп. информация: Озвучено по субтитрам Антона Каптелова, раздача с субтитрами здесь:
Сэмпл: http://multi-up.com/1060844
Качество видео: VHSRip
Формат видео: AVI
Видео: 640x288 (2.22:1), 23.976 fps, ~1721 kbps avg, 0.390 bit/pixel
Аудио 1: 48 kHz, AC3 Dolby Digital, 2/0 (L,R) ch, ~192.00 kbps - русский
Аудио 2: 48 kHz, AC3 Dolby Digital, 2/0 (L,R) ch, ~192.00 kbps - французский

MediaInfo

Общее
Полное имя : F:\FILMY\FILM-2015\Disk-97\Семь смертных грехов\Les.sept.peches.capitaux.1962.Ita-Fr.[vo.satkur+fr].AC3.Rus\Les.sept.peches.capitaux.1962.Ita-Fr.[vo.satkur+fr].AC3.Rus.avi
Формат : AVI
Формат/Информация : Audio Video Interleave
Размер файла : 1,68 Гбайт
Продолжительность : 1 ч. 53 м.
Общий поток : 2120 Кбит/сек
Программа кодирования : VirtualDubModRus 1.5.10.2 (build 2542/release)
Библиотека кодирования : VirtualDubMod build 2542/release
Видео
Идентификатор : 0
Формат : MPEG-4 Visual
Профиль формата : Simple@L1
Параметр BVOP формата : Нет
Параметр QPel формата : Нет
Параметр GMC формата : Без точки перехода
Параметр матрицы формата : Default (H.263)
Идентификатор кодека : XVID
Идентификатор кодека/Подсказка : XviD
Продолжительность : 1 ч. 53 м.
Битрейт : 1721 Кбит/сек
Ширина : 640 пикселей
Высота : 288 пикселей
Соотношение сторон : 2,222
Частота кадров : 23,976 кадра/сек
Цветовое пространство : YUV
Субдискретизация насыщенности : 4:2:0
Битовая глубина : 8 бит
Тип развёртки : Прогрессивная
Метод сжатия : С потерями
Бит/(Пиксели*Кадры) : 0.390
Размер потока : 1,36 Гбайт (81%)
Библиотека кодирования : Lavc52.84.0
Аудио #1
Идентификатор : 1
Формат : AC-3
Формат/Информация : Audio Coding 3
Расширение режима : CM (complete main)
Параметр Endianness формата : Big
Идентификатор кодека : 2000
Продолжительность : 1 ч. 53 м.
Вид битрейта : Постоянный
Битрейт : 192 Кбит/сек
Каналы : 2 канала
Расположение каналов : Front: L R
Частота : 48,0 КГц
Битовая глубина : 16 бит
Метод сжатия : С потерями
Размер потока : 156 Мбайт (9%)
Выравнивание : Разделение по промежуткам
Продолжительность промежутка : 42 мс. (1,00 видеокадр)
Время предзагрузки промежутка : 500 мс.
Аудио #2
Идентификатор : 2
Формат : AC-3
Формат/Информация : Audio Coding 3
Расширение режима : CM (complete main)
Параметр Endianness формата : Big
Идентификатор кодека : 2000
Продолжительность : 1 ч. 53 м.
Вид битрейта : Постоянный
Битрейт : 192 Кбит/сек
Каналы : 2 канала
Расположение каналов : Front: L R
Частота : 48,0 КГц
Битовая глубина : 16 бит
Метод сжатия : С потерями
Размер потока : 156 Мбайт (9%)
Выравнивание : Разделение по промежуткам
Продолжительность промежутка : 42 мс. (1,00 видеокадр)
Время предзагрузки промежутка : 500 мс.

Скриншот c названием фильма

To download the content you need:
1. Download and install torrent client [for Windows] or for mobile system
2. Click on [Download]
Attention.
If the test YOU are NOT a ROBOT - does not work, then You are using an outdated browser.
Install the current browser and click on [Download]
Security: torrent client is allowed by Kaspersky.

[en.asmlocator.ru].t4021.torrent 
Torrent: Registered [ 2015-11-30 05:45 ] · BA14EE9B1761BFD6D8871D83EB9E009AF41017FC

Download .torrent

Download

17 KB

Status: checked
Completed: 0 times
Size: 1.68 GB
terms.php
[Profile] [PM]
Display posts:    
Reply to topic

Current time is: 08-Dec 10:37

All times are UTC ± 0



You cannot post new topics in this forum
You cannot reply to topics in this forum
You cannot edit your posts in this forum
You cannot delete your posts in this forum
You cannot vote in polls in this forum
You cannot attach files in this forum
You can download files in this forum
Верим фактам, а не вранью Путина! Факт, что Правительство ведёт Россию к истреблению.
Так как численность населения падает, даже не смотря на приток эмигрантов!
Русская нация вымирает и вырождается, смешиваясь с эмигрантами!
Факт, что военных и граждан предприятий заставляют голосовать за партию Единая Россия и Путина
ПОД СТРАХОМ УВОЛЬНЕНИЯ!
Нам не нужно Правительство, блокирующее личную жизнь, интернет, нарушающее сохранность данных.
Все эти действия финансируются за счёт народа!