Страх / Я больше не верю в любовь / Non credo piu all\'amore / La paura (Роберто Росселлини / Roberto Rossellini) [1954, Италия, Германия, драма, BDRip][Международная версия / International Version] MVO (Инис) + MVO (СВ-Дубль) + Sub Rus + Original En

Reply to topic
DL-List and Torrent activity
Size:  1.57 GB   |    Registered:  4 years   |    Completed:  0 times

Seeder not seen: Never

 
   
 
 
Author Message

star21 ®

Gender: Female

Longevity: 4 years 1 month

Posts: 551946

Location: Екатеринбург

Post 30-Nov-2015 05:49

[Quote]

Страх / Я больше не верю в любовь / Non credo piu all'amore / La paura
Международная версия / International Version


Страна: Италия, Германия
Жанр: драма
Год выпуска: 1954
Продолжительность: 01:22:49
Перевод: Профессиональный (многоголосый закадровый) - Инис
Перевод 2: Профессиональный (многоголосый закадровый) - СВ-Дубль
Cубтитры: русские (на места без перевода), русские полные, английские
Оригинальная аудиодорожка: английский

Режиссер: Роберто Росселлини / Roberto Rossellini
В ролях: Ингрид Бергман, Матиас Виман, Ренате Маннхардт, Курт Кройгер, Элизе Аулингер, Эдит Шульце-Веструм, Штеффи Струкс, Аннелоре Вид, Рольф Дейнингер, Альберт Херц, Клаус Кински
Описание: По одноименной новелле Стефана Цвейга. История о муках, которые приносят измена и обман. Ирэн Вагнер, жена предпринимателя и мать двоих детей, рассталась со своим любовником. Но тени прошлого преследуют ее, к ней приходит бывшая любовница ее возлюбленного и начинает шантажировать Ирэн. Она запутывается в клубке лжи, однако, каково будет ее удивление, когда она узнает, кто подстроил этот шантаж…
Качество видео:
Формат видео: AVI
Видео: 656x480 (1.37:1), 24 fps, XviD build 73 ~2120 kbps avg, 0.28 bit/pixel
Аудио: 48 kHz, AC3 Dolby Digital, 2/0 (L,R) ch, ~192 kbps - Инис
Аудио: 48 kHz, AC3 Dolby Digital, 2/0 (L,R) ch, ~192 kbps - CD-Дубль
Аудио: 48 kHz, AC3 Dolby Digital, 2/0 (L,R) ch, ~192 kbps - оригинал (отдельным файлом)

MediaInfo

Общее
Полное имя : H:\La.paura.1954.bdrip_[1.46]_[teko]\La.paura.1954.bdrip_[1.46].avi
Формат : AVI
Формат/Информация : Audio Video Interleave
Размер файла : 1,46 Гбайт
Продолжительность : 1 ч. 22 м.
Общий поток : 2519 Кбит/сек
Программа кодирования : VirtualDubMod 1.5.10.3 | www.virtualdub-fr.org || (build 2550/release)
Библиотека кодирования : VirtualDubMod build 2550/release
Видео
Идентификатор : 0
Формат : MPEG-4 Visual
Профиль формата : Advanced Simple@L5
Параметр BVOP формата : 1
Параметр QPel формата : Нет
Параметр GMC формата : Без точки перехода
Параметр матрицы формата : Выборочная
Идентификатор кодека : XVID
Идентификатор кодека/Подсказка : XviD
Продолжительность : 1 ч. 22 м.
Битрейт : 2122 Кбит/сек
Ширина : 656 пикселей
Высота : 480 пикселей
Соотношение сторон : 4:3
Частота кадров : 24,000 кадра/сек
Цветовое пространство : YUV
Субдискретизация насыщенности : 4:2:0
Битовая глубина : 8 бит
Тип развёртки : Прогрессивная
Метод сжатия : С потерями
Бит/(Пиксели*Кадры) : 0.281
Размер потока : 1,23 Гбайт (84%)
Библиотека кодирования : XviD 73
Аудио #1
Идентификатор : 1
Формат : AC-3
Формат/Информация : Audio Coding 3
Расширение режима : CM (complete main)
Параметр Endianness формата : Big
Идентификатор кодека : 2000
Продолжительность : 1 ч. 22 м.
Вид битрейта : Постоянный
Битрейт : 192 Кбит/сек
Каналы : 2 канала
Расположение каналов : Front: L R
Частота : 48,0 КГц
Битовая глубина : 16 бит
Метод сжатия : С потерями
Размер потока : 114 Мбайт (8%)
Выравнивание : Разделение по промежуткам
Продолжительность промежутка : 42 мс. (1,00 видеокадр)
Время предзагрузки промежутка : 500 мс.
Аудио #2
Идентификатор : 2
Формат : AC-3
Формат/Информация : Audio Coding 3
Расширение режима : CM (complete main)
Параметр Endianness формата : Big
Идентификатор кодека : 2000
Продолжительность : 1 ч. 22 м.
Вид битрейта : Постоянный
Битрейт : 192 Кбит/сек
Каналы : 2 канала
Расположение каналов : Front: L R
Частота : 48,0 КГц
Битовая глубина : 16 бит
Метод сжатия : С потерями
Размер потока : 114 Мбайт (8%)
Выравнивание : Разделение по промежуткам
Продолжительность промежутка : 42 мс. (1,00 видеокадр)
Время предзагрузки промежутка : 500 мс.
Релиз группы:
-
-

To download the content you need:
1. Download and install torrent client [for Windows] or for mobile system
2. Click on [Download]
Attention.
If the test YOU are NOT a ROBOT - does not work, then You are using an outdated browser.
Install the current browser and click on [Download]
Security: torrent client is allowed by Kaspersky.

[en.asmlocator.ru].t4019.torrent 
Torrent: Registered [ 2015-11-30 05:45 ] · 4926AB78CB6C035169ABF4F11B2A0A74B3F8713A

Download .torrent

Download

16 KB

Status: checked
Completed: 0 times
Size: 1.57 GB
terms.php
[Profile] [PM]
Display posts:    
Reply to topic

Current time is: 12-Dec 04:12

All times are UTC ± 0



You cannot post new topics in this forum
You cannot reply to topics in this forum
You cannot edit your posts in this forum
You cannot delete your posts in this forum
You cannot vote in polls in this forum
You cannot attach files in this forum
You can download files in this forum
Верим фактам, а не вранью Путина! Факт, что Правительство ведёт Россию к истреблению.
Так как численность населения падает, даже не смотря на приток эмигрантов!
Русская нация вымирает и вырождается, смешиваясь с эмигрантами!
Факт, что военных и граждан предприятий заставляют голосовать за партию Единая Россия и Путина
ПОД СТРАХОМ УВОЛЬНЕНИЯ!
Нам не нужно Правительство, блокирующее личную жизнь, интернет, нарушающее сохранность данных.
Все эти действия финансируются за счёт народа!