Адский городок / Born to the West (Чарльз Бартон / Charles Barton) [1937, США, Мелодрама, вестерн, DVDRip] VO (Петр Титов) + Original Eng

Reply to topic
DL-List and Torrent activity
Size:  944 MB   |    Registered:  4 years 7 months   |    Completed:  2 times

Seeder not seen: 8 months 25 days

 
   
 
 
Author Message

star21 ®

Gender: Female

Longevity: 4 years 8 months

Posts: 551945

Location: Екатеринбург

Post 30-Nov-2015 05:49

[Quote]

Адский городок / Born to the West
Страна: США
Жанр: Мелодрама, вестерн
Год выпуска: 1937
Продолжительность: 00:55:32
Перевод: Одноголосый любительский (Петр Титов)
Cубтитры: нет
Оригинальная аудиодорожка: английский
Режиссер: Чарльз Бартон/Charles Barton
В ролях: Джон Уэйн, Марша Хант, Джонни Мак Браун, Джон Паттерсон, Монте Блу, Люсьен Литтлфилд
Описание: Скотовод Том нанимает ковбоя Радда для грядущего перегона своего стада, но страсть Радда к азартным играм может легко погубить всю мероприятие.
Сэмпл: https://www.sendspace.com/file/k02e07
Качество видео: DVDRip
Формат видео: AVI
Видео: DivX 1280x720 24fps [Video], 2 041 Kbps
Аудио: MP3 44100Hz stereo 192kbps [Audio]
Аудио 2: MPEG Audio 44100Hz 128kbps [Audio] (Оригинал)
Первые несколько секунд присутствует сторонний логотип

MediaInfo

General
Complete name : C:\Users\piter\Desktop\адский городок.avi
Format : AVI
Format/Info : Audio Video Interleave
File size : 944 MiB
Duration : 55mn 32s
Overall bit rate : 2 375 Kbps
Writing application : VirtualDubMod 1.5.10.2 (build 2540/release)
Writing library : VirtualDubMod build 2540/release
Video
ID : 0
Format : MPEG-4 Visual
Format profile : Simple@L1
Format settings, BVOP : No
Format settings, QPel : No
Format settings, GMC : No warppoints
Format settings, Matrix : Default (H.263)
Codec ID : DX50
Codec ID/Hint : DivX 5
Duration : 55mn 32s
Bit rate : 2 041 Kbps
Width : 1 280 pixels
Height : 720 pixels
Display aspect ratio : 16:9
Frame rate : 24.000 fps
Color space : YUV
Chroma subsampling : 4:2:0
Bit depth : 8 bits
Scan type : Progressive
Compression mode : Lossy
Bits/(Pixel*Frame) : 0.092
Stream size : 811 MiB (86%)
Writing library : Lavc53.8.0
Audio #1
ID : 1
Format : MPEG Audio
Format version : Version 1
Format profile : Layer 3
Codec ID : 55
Codec ID/Hint : MP3
Duration : 55mn 32s
Bit rate mode : Constant
Bit rate : 192 Kbps
Channel(s) : 2 channels
Sampling rate : 44.1 KHz
Compression mode : Lossy
Stream size : 76.3 MiB (8%)
Alignment : Split accross interleaves
Interleave, duration : 42 ms (1.00 video frame)
Interleave, preload duration : 500 ms
Audio #2
ID : 2
Format : MPEG Audio
Format version : Version 1
Format profile : Layer 3
Mode : Joint stereo
Mode extension : MS Stereo
Codec ID : 55
Codec ID/Hint : MP3
Duration : 55mn 32s
Bit rate mode : Constant
Bit rate : 128 Kbps
Channel(s) : 2 channels
Sampling rate : 44.1 KHz
Compression mode : Lossy
Stream size : 50.8 MiB (5%)
Alignment : Split accross interleaves
Interleave, duration : 42 ms (1.00 video frame)
Interleave, preload duration : 500 ms
Writing library : LAME3.98.4

Скриншот c названием фильма

Скриншоты



To download the content you need:
1. Download and install torrent client [for Windows] or for mobile system
2. Click on [Download]
Attention.
If the test YOU are NOT a ROBOT - does not work, then You are using an outdated browser.
Install the current browser and click on [Download]

Do not work with Yandex browser. Uploading files to them is erroneous.
Security: torrent client is allowed by Kaspersky.

[en.asmlocator.ru].t4015.torrent 
Torrent: Registered [ 2015-11-30 05:45 ] · A0091B1DD6B8628848B87DE3B5CC6712F9CDB2F2

Download .torrent

Download

19 KB

Status: checked
Completed: 2 times
Size: 944 MB
terms.php
[Profile] [PM]
Display posts:    
Reply to topic

Current time is: 14-Jul 19:58

All times are UTC ± 0



You cannot post new topics in this forum
You cannot reply to topics in this forum
You cannot edit your posts in this forum
You cannot delete your posts in this forum
You cannot vote in polls in this forum
You cannot attach files in this forum
You can download files in this forum