Чайки умирают в гавани / Meeuwen sterven in de haven / Seagulls Die in the Harbour (Рик Кеперс / Rik Kuypers, Иво Микильс / Ivo Michiels, Роланд Верхаверт / Roland Verhavert) [1955, Бельгия, драма, DVDRip] Dub + Sub Rus, Eng + original

Reply to topic
DL-List and Torrent activity
Size:  1.45 GB   |    Registered:  4 years   |    Completed:  0 times

Seeder not seen: 9 months 20 days

 
   
 
 
Author Message

star21 ®

Gender: Female

Longevity: 4 years 1 month

Posts: 551946

Location: Екатеринбург

Post 30-Nov-2015 05:49

[Quote]

Чайки умирают в гавани / Meeuwen sterven in de haven / Seagulls Die in the Harbour
Страна: Бельгия
Жанр: драма
Год выпуска: 1955
Продолжительность: 01:22:10
Перевод: Профессиональный (дублированный) - Советский дубляж
Cубтитры: русские, английские
Оригинальная аудиодорожка: франко-голландская

Режиссер: Рик Кеперс / Rik Kuypers, Иво Микильс / Ivo Michiels, Роланд Верхаверт / Roland Verhavert
В ролях: Тине Балдер, Тоне Брюлин, Элис Де Грэф, Дженни Денейдер, Пит Фрисон, Дезире Каесен, Роберт Каесен, Гиги, Эрик Питер, Марсель Филипп
Описание: Урбанистическая драма, насквозь проникнутая пессимизмом, в музыкальном обрамлении мелодий Джека Селса и Макса Дамасса. «Чайки умирают в гавани» стал одним из первых – если не самым первым – космополитическим фильмом во фламандской истории кино.
На фоне послевоенного Антверпена разворачивается экзистенциалистская драма, изображающая метания измученного бродяги (Жулье Скунартс), ищущего спасения. Как части мозаики его пагубного прошлого - единственные люди, нравственно поддерживающие его, на протяжении всего фильма - шестилетняя сирота, жена таинственного шкипера (Тит Бальдер) и заинтересованная проститутка (Дора Ван дер Грун).
Несмотря на замечательные усилия триумвирата (Рик Кеперс, Иво Микильс, Роланд Верхаверт) изобразить персонажей в полупоэтическом реализме, играющем с изображениями, монтажом и музыкой, характеры время от времени оказываются потерянными в лабиринте социального подъема, проницательного диалога, поверхностного авангарда и наивного, культурного конформизма. Но рассматривая в историческом контексте, эта картина – именно тот шаг, который должен был быть сделан на пути бельгийской кинематографии.

Качество видео:
Формат видео: AVI
Видео: 640x480 (1.33:1), 25 fps, XviD build 73 ~2092 kbps avg, 0.27 bit/pixel
Аудио: 48 kHz, AC3 Dolby Digital, 2/0 (L,R) ch, ~192 kbps - дубляж
Аудио: 48 kHz, AC3 Dolby Digital, 2/0 (L,R) ch, ~224 kbps - оригинал

Сравнение

раздача нестандартного размера с русскими вводными титрами
просьба не поглощать
http://screenshotcomparison.com/comparison/137373

MediaInfo

Общее
Полное имя : H:\Meeuwen.sterven.in.de.haven.1955.dvdrip_[1.46]_[teko]\Meeuwen.sterven.in.de.haven.1955.dvdrip_[1.46].avi
Формат : AVI
Формат/Информация : Audio Video Interleave
Размер файла : 1,45 Гбайт
Продолжительность : 1 ч. 22 м.
Общий поток : 2524 Кбит/сек
Программа кодирования : VirtualDubMod 1.5.10.3 | www.virtualdub-fr.org || (build 2550/release)
Библиотека кодирования : VirtualDubMod build 2550/release
Видео
Идентификатор : 0
Формат : MPEG-4 Visual
Профиль формата : Advanced Simple@L5
Параметр BVOP формата : 1
Параметр QPel формата : Нет
Параметр GMC формата : Без точки перехода
Параметр матрицы формата : Выборочная
Идентификатор кодека : XVID
Идентификатор кодека/Подсказка : XviD
Продолжительность : 1 ч. 22 м.
Битрейт : 2094 Кбит/сек
Ширина : 640 пикселей
Высота : 480 пикселей
Соотношение сторон : 4:3
Частота кадров : 25,000 кадров/сек
Цветовое пространство : YUV
Субдискретизация насыщенности : 4:2:0
Битовая глубина : 8 бит
Тип развёртки : Прогрессивная
Метод сжатия : С потерями
Бит/(Пиксели*Кадры) : 0.273
Размер потока : 1,20 Гбайт (83%)
Библиотека кодирования : XviD 73
Аудио #1
Идентификатор : 1
Формат : AC-3
Формат/Информация : Audio Coding 3
Расширение режима : CM (complete main)
Параметр Endianness формата : Big
Идентификатор кодека : 2000
Продолжительность : 1 ч. 22 м.
Вид битрейта : Постоянный
Битрейт : 192 Кбит/сек
Каналы : 2 канала
Расположение каналов : Front: L R
Частота : 48,0 КГц
Битовая глубина : 16 бит
Метод сжатия : С потерями
Размер потока : 113 Мбайт (8%)
Выравнивание : Разделение по промежуткам
Продолжительность промежутка : 40 мс. (1,00 видеокадр)
Время предзагрузки промежутка : 500 мс.
Аудио #2
Идентификатор : 2
Формат : AC-3
Формат/Информация : Audio Coding 3
Расширение режима : CM (complete main)
Параметр Endianness формата : Big
Идентификатор кодека : 2000
Продолжительность : 1 ч. 22 м.
Вид битрейта : Постоянный
Битрейт : 224 Кбит/сек
Каналы : 2 канала
Расположение каналов : Front: L R
Частота : 48,0 КГц
Битовая глубина : 16 бит
Метод сжатия : С потерями
Размер потока : 132 Мбайт (9%)
Выравнивание : Разделение по промежуткам
Продолжительность промежутка : 40 мс. (1,00 видеокадр)
Время предзагрузки промежутка : 500 мс.
Релиз группы:
-
-

To download the content you need:
1. Download and install torrent client [for Windows] or for mobile system
2. Click on [Download]
Attention.
If the test YOU are NOT a ROBOT - does not work, then You are using an outdated browser.
Install the current browser and click on [Download]
Security: torrent client is allowed by Kaspersky.

[en.asmlocator.ru].t4012.torrent 
Torrent: Registered [ 2015-11-30 05:45 ] · 494F16CA308BE683F6F9365907AD04E412A06EAB

Download .torrent

Download

15 KB

Status: checked
Completed: 0 times
Size: 1.45 GB
terms.php
[Profile] [PM]
Display posts:    
Reply to topic

Current time is: 14-Dec 23:36

All times are UTC ± 0



You cannot post new topics in this forum
You cannot reply to topics in this forum
You cannot edit your posts in this forum
You cannot delete your posts in this forum
You cannot vote in polls in this forum
You cannot attach files in this forum
You can download files in this forum
Верим фактам, а не вранью Путина! Факт, что Правительство ведёт Россию к истреблению.
Так как численность населения падает, даже не смотря на приток эмигрантов!
Русская нация вымирает и вырождается, смешиваясь с эмигрантами!
Факт, что военных и граждан предприятий заставляют голосовать за партию Единая Россия и Путина
ПОД СТРАХОМ УВОЛЬНЕНИЯ!
Нам не нужно Правительство, блокирующее личную жизнь, интернет, нарушающее сохранность данных.
Все эти действия финансируются за счёт народа!