Буря в стакане воды / Storm in a Teacup (Ян Далримпл / Ian Dalrymple, Виктор Савиль / Victor Saville) [1937, Великобритания, комедия, мелодрама, HDRip] MVO (DVD Магия / Светла) + Original Eng

Reply to topic
DL-List and Torrent activity
Size:  1.46 GB   |    Registered:  4 years   |    Completed:  0 times

Seeder not seen: Never

 
   
 
 
Author Message

star21 ®

Gender: Female

Longevity: 4 years 1 month

Posts: 551946

Location: Екатеринбург

Post 30-Nov-2015 05:49

[Quote]

Буря в стакане воды / Storm in a Teacup
Страна: Великобритания
Жанр: комедия, мелодрама
Год выпуска: 1937
Продолжительность: 01:26:53
Перевод: Профессиональный (многоголосый закадровый) - DVD Магия / Светла
Cубтитры: нет
Оригинальная аудиодорожка: английский

Режиссер: Ян Далримпл / Ian Dalrymple, Виктор Савиль / Victor Saville
В ролях: Вивьен Ли, Рекс Харрисон, Сесил Паркер, Сара Оллгуд, Урсула Джинс, Гас МакНотон, Эдгар К. Брюс, Роберт Хейл, Квентин МакФирсон, Артур Уонтнер
Описание: Фрэнк Бердон — новый репортер в провинциальной шотландской газете, переведенный сюда из Англии как раз в тот момент, когда в городе назревают нешуточные страсти. Местный политик Вильям Гоу — совершенно гнусный и злобный тип, ненавидящий животных. Мало того, он решает усыпить одного бедного песика, совершенно ни в чем не повинного, да к тому же принадлежащего одной милой и беззащитной даме. Но тут появляется героический Фрэнк Бердон, решивший придать эту историю широкой огласке в газете. Это не нравиться Гоу. Оба — слишком гордые, чтобы отступить назад и их отношения принимают криминальный характер. В то же самое время дерзкий репортер влюбляется в красавицу-дочь Гоа Викторию.
Качество видео:
Формат видео: AVI
Видео: 656x480 (1.37:1), 23.976 fps, XviD build 73 ~2003 kbps avg, 0.27 bit/pixel
Аудио: 48 kHz, AC3 Dolby Digital, 2/0 (L,R) ch, ~192 kbps - многоголосый
Аудио: 48 kHz, AC3 Dolby Digital, 2/0 (L,R) ch, ~192 kbps - оригинал

MediaInfo

Общее
Полное имя : H:\Storm.in.a.Teacup.1937.hdrip_[1.46]_[teko].avi
Формат : AVI
Формат/Информация : Audio Video Interleave
Размер файла : 1,46 Гбайт
Продолжительность : 1 ч. 26 м.
Общий поток : 2401 Кбит/сек
Программа кодирования : VirtualDubMod 1.5.10.3 | www.virtualdub-fr.org || (build 2550/release)
Библиотека кодирования : VirtualDubMod build 2550/release
Видео
Идентификатор : 0
Формат : MPEG-4 Visual
Профиль формата : Advanced Simple@L5
Параметр BVOP формата : 1
Параметр QPel формата : Нет
Параметр GMC формата : Без точки перехода
Параметр матрицы формата : Выборочная
Идентификатор кодека : XVID
Идентификатор кодека/Подсказка : XviD
Продолжительность : 1 ч. 26 м.
Битрейт : 2004 Кбит/сек
Ширина : 656 пикселей
Высота : 480 пикселей
Соотношение сторон : 4:3
Частота кадров : 23,976 кадра/сек
Цветовое пространство : YUV
Субдискретизация насыщенности : 4:2:0
Битовая глубина : 8 бит
Тип развёртки : Прогрессивная
Метод сжатия : С потерями
Бит/(Пиксели*Кадры) : 0.265
Размер потока : 1,22 Гбайт (83%)
Библиотека кодирования : XviD 73
Аудио #1
Идентификатор : 1
Формат : AC-3
Формат/Информация : Audio Coding 3
Расширение режима : CM (complete main)
Параметр Endianness формата : Big
Идентификатор кодека : 2000
Продолжительность : 1 ч. 26 м.
Вид битрейта : Постоянный
Битрейт : 192 Кбит/сек
Каналы : 2 канала
Расположение каналов : Front: L R
Частота : 48,0 КГц
Битовая глубина : 16 бит
Метод сжатия : С потерями
Размер потока : 119 Мбайт (8%)
Выравнивание : Разделение по промежуткам
Продолжительность промежутка : 42 мс. (1,01 видеокадр)
Время предзагрузки промежутка : 500 мс.
Аудио #2
Идентификатор : 2
Формат : AC-3
Формат/Информация : Audio Coding 3
Расширение режима : CM (complete main)
Параметр Endianness формата : Big
Идентификатор кодека : 2000
Продолжительность : 1 ч. 26 м.
Вид битрейта : Постоянный
Битрейт : 192 Кбит/сек
Каналы : 2 канала
Расположение каналов : Front: L R
Частота : 48,0 КГц
Битовая глубина : 16 бит
Метод сжатия : С потерями
Размер потока : 119 Мбайт (8%)
Выравнивание : Разделение по промежуткам
Продолжительность промежутка : 42 мс. (1,00 видеокадр)
Время предзагрузки промежутка : 500 мс.
Релиз группы:
-
-

To download the content you need:
1. Download and install torrent client [for Windows] or for mobile system
2. Click on [Download]
Attention.
If the test YOU are NOT a ROBOT - does not work, then You are using an outdated browser.
Install the current browser and click on [Download]
Security: torrent client is allowed by Kaspersky.

[en.asmlocator.ru].t4009.torrent 
Torrent: Registered [ 2015-11-30 05:45 ] · A86B795002DFC4F1AB5442DB56469D891FF331C1

Download .torrent

Download

15 KB

Status: checked
Completed: 0 times
Size: 1.46 GB
terms.php
[Profile] [PM]
Display posts:    
Reply to topic

Current time is: 14-Dec 21:55

All times are UTC ± 0



You cannot post new topics in this forum
You cannot reply to topics in this forum
You cannot edit your posts in this forum
You cannot delete your posts in this forum
You cannot vote in polls in this forum
You cannot attach files in this forum
You can download files in this forum
Верим фактам, а не вранью Путина! Факт, что Правительство ведёт Россию к истреблению.
Так как численность населения падает, даже не смотря на приток эмигрантов!
Русская нация вымирает и вырождается, смешиваясь с эмигрантами!
Факт, что военных и граждан предприятий заставляют голосовать за партию Единая Россия и Путина
ПОД СТРАХОМ УВОЛЬНЕНИЯ!
Нам не нужно Правительство, блокирующее личную жизнь, интернет, нарушающее сохранность данных.
Все эти действия финансируются за счёт народа!