Берегите глаза! / Осторожно – глаза! / Attention les yeux! (Жерар Пирес / Gérard Pirès) [1975, Франция, комедия, DVDRip-AVC] MVO (5 канал)

Reply to topic
DL-List and Torrent activity
Size:  1.45 GB   |    Registered:  4 years   |    Completed:  1 time

Seeder not seen: 1 month 21 day

 
   
 
 
Author Message

star21 ®

Gender: Female

Longevity: 4 years 1 month

Posts: 551946

Location: Екатеринбург

Post 30-Nov-2015 05:49

[Quote]

Берегите глаза! / Осторожно – глаза! / Attention les yeux!
Страна: Франция
Жанр: комедия
Год выпуска: 1975
Продолжительность: 01:19:18
Перевод: Профессиональный (многоголосый закадровый) 5 канал
Cубтитры: нет
Режиссер: Жерар Пирес / Gérard Pirès
В ролях: Клод Брассёр, Робер Кастель, Натали Курваль, Жан-Пьер Даррас, Ги Маршан, Серж Маркан, Андре Пусс, Анемон, Даниель Отой, Жорж Аде...
Описание: Начинающие кинопродюсеры решают для начала снять порнофильм в надежде заработать денег на дальнейшее творчество. Но актеры оказываются слишком самовлюбленными эгоцентриками, осветители — совершенно некомпетентными, художник стесняется покупать реквизит в секс-шопе, а амбициозный режиссер не в восторге от идеи снимать дешевое порно.
Сэмпл: http://multi-up.com/1061224
Качество видео: DVDRip-AVC
Формат видео: MKV
Видео: 676x576 (1.668) @ 962x576, 25.000 fps, AVC, ~2420 Kbps, 0.249 bits/pixel
Аудио: 48.0 KHz, AC3, 2 ch, 192 Kbps - 5 канал

Log

avs4x264.exe: -L x264_64.exe --pass 2 --bitrate 2420 --preset medium --ref 10 --deblock -1:-1 --merange 32 --bframes 10 --direct auto --b-adapt 2 --trellis 2 --no-fast-pskip --psy-rd 1.00:0.10 --partitions all --subme 10 --me umh --rc-lookahead 50 --sar 987:694 --stats
raw [info]: 676x576p 987:694 @ 25/1 fps (cfr)
x264 [info]: using SAR=987/694
x264 [info]: using cpu capabilities: MMX2 SSE2Fast LZCNT
x264 [info]: profile High, level 3.1
x264 [info]: frame I:702 Avg QP:18.38 size: 61449
x264 [info]: frame P:22498 Avg QP:21.20 size: 28688
x264 [info]: frame B:95761 Avg QP:23.95 size: 7841
x264 [info]: consecutive B-frames: 0.9% 1.2% 5.3% 9.1% 8.0% 68.5% 2.8% 1.5% 1.3% 0.5% 0.6%
x264 [info]: mb I I16..4: 2.4% 86.4% 11.2%
x264 [info]: mb P I16..4: 0.5% 16.9% 1.6% P16..4: 38.6% 24.9% 15.9% 0.7% 0.2% skip: 0.8%
x264 [info]: mb B I16..4: 0.0% 1.9% 0.2% B16..8: 41.8% 12.7% 3.2% direct: 7.7% skip:32.4% L0:35.6% L1:43.2% BI:21.1%
x264 [info]: 8x8 transform intra:89.0% inter:70.9%
x264 [info]: direct mvs spatial:98.8% temporal:1.2%
x264 [info]: coded y,uvDC,uvAC intra: 94.1% 75.3% 32.0% inter: 33.2% 22.7% 1.7%
x264 [info]: i16 v,h,dc,p: 30% 11% 11% 48%
x264 [info]: i8 v,h,dc,ddl,ddr,vr,hd,vl,hu: 14% 8% 8% 9% 12% 15% 10% 13% 11%
x264 [info]: i4 v,h,dc,ddl,ddr,vr,hd,vl,hu: 14% 21% 4% 7% 11% 15% 9% 11% 9%
x264 [info]: i8c dc,h,v,p: 33% 24% 26% 16%
x264 [info]: Weighted P-Frames: Y:4.2% UV:1.0%
x264 [info]: ref P L0: 36.1% 14.1% 20.5% 6.0% 6.7% 4.0% 4.9% 2.3% 3.0% 2.2% 0.3% 0.0%
x264 [info]: ref B L0: 74.8% 12.0% 4.7% 2.6% 1.9% 1.7% 1.4% 0.6% 0.3%
x264 [info]: ref B L1: 94.1% 5.9%
x264 [info]: kb/s:2420.01
x264 [total]: encoded 118961 frames, 10.34 fps, 2420.01 kb/s

MediaInfo

General
Unique ID : 208700020081107725529397607587336988258 (0x9D02296C2C57DD6996B83DD78EFCA662)
Complete name : C:\Attention les yeux!.mkv
Format : Matroska
Format version : Version 4 / Version 2
File size : 1.45 GiB
Duration : 1h 19mn
Overall bit rate : 2 614 Kbps
Encoded date : UTC 2015-08-03 15:02:25
Writing application : mkvmerge v8.1.0 ('Psychedelic Postcard') 64bit
Writing library : libebml v1.3.1 + libmatroska v1.4.2
DURATION : 01:19:18.432000000
NUMBER_OF_FRAMES : 148701
NUMBER_OF_BYTES : 114202368
_STATISTICS_WRITING_APP : mkvmerge v8.1.0 ('Psychedelic Postcard') 64bit
_STATISTICS_WRITING_DATE_UT : 2015-08-03 15:02:25
_STATISTICS_TAGS : BPS DURATION NUMBER_OF_FRAMES NUMBER_OF_BYTES
Video
ID : 1
Format : AVC
Format/Info : Advanced Video Codec
Format profile : High@L3.1
Format settings, CABAC : Yes
Format settings, ReFrames : 10 frames
Codec ID : V_MPEG4/ISO/AVC
Duration : 1h 19mn
Bit rate : 2 420 Kbps
Width : 676 pixels
Height : 576 pixels
Display aspect ratio : 5:3
Original display aspect rat : 5:3
Frame rate mode : Constant
Frame rate : 25.000 fps
Color space : YUV
Chroma subsampling : 4:2:0
Bit depth : 8 bits
Scan type : Progressive
Bits/(Pixel*Frame) : 0.249
Stream size : 1.31 GiB (91%)
Writing library : x264 core 146 r2538 121396c
Encoding settings : cabac=1 / ref=10 / deblock=1:-1:-1 / analyse=0x3:0x133 / me=umh / subme=10 / psy=1 / psy_rd=1.00:0.10 / mixed_ref=1 / me_range=32 / chroma_me=1 / trellis=2 / 8x8dct=1 / cqm=0 / deadzone=21,11 / fast_pskip=0 / chroma_qp_offset=-3 / threads=6 / lookahead_threads=1 / sliced_threads=0 / nr=0 / decimate=1 / interlaced=0 / bluray_compat=0 / constrained_intra=0 / bframes=10 / b_pyramid=2 / b_adapt=2 / b_bias=0 / direct=3 / weightb=1 / open_gop=0 / weightp=2 / keyint=250 / keyint_min=25 / scenecut=40 / intra_refresh=0 / rc_lookahead=50 / rc=2pass / mbtree=1 / bitrate=2420 / ratetol=1.0 / qcomp=0.60 / qpmin=0 / qpmax=69 / qpstep=4 / cplxblur=20.0 / qblur=0.5 / ip_ratio=1.40 / aq=1:1.00
Language : French
Default : Yes
Forced : No
Audio
ID : 2
Format : AC-3
Format/Info : Audio Coding 3
Mode extension : CM (complete main)
Format settings, Endianness : Big
Codec ID : A_AC3
Duration : 1h 19mn
Bit rate mode : Constant
Bit rate : 192 Kbps
Channel(s) : 2 channels
Channel positions : Front: L R
Sampling rate : 48.0 KHz
Compression mode : Lossy
Stream size : 109 MiB (7%)
Title : 5 канал
Language : Russian
Default : Yes
Forced : No
Menu
00:00:00.000 : :Chapter 01
00:04:51.360 : :Chapter 02
00:10:02.520 : :Chapter 03
00:20:16.200 : :Chapter 04
00:27:09.760 : :Chapter 05
00:37:08.440 : :Chapter 06
00:46:47.200 : :Chapter 07
00:54:20.520 : :Chapter 08
01:03:02.760 : :Chapter 09
01:15:57.360 : :Chapter 10

Скриншоты

To download the content you need:
1. Download and install torrent client [for Windows] or for mobile system
2. Click on [Download]
Attention.
If the test YOU are NOT a ROBOT - does not work, then You are using an outdated browser.
Install the current browser and click on [Download]
Security: torrent client is allowed by Kaspersky.

[en.asmlocator.ru].t4008.torrent 
Torrent: Registered [ 2015-11-30 05:45 ] · B25B7A8C0E5660B7285DCDD86F5BB78D501B8551

Download .torrent

Download

15 KB

Status: checked
Completed: 1 times
Size: 1.45 GB
terms.php
[Profile] [PM]
Display posts:    
Reply to topic

Current time is: 10-Dec 07:09

All times are UTC ± 0



You cannot post new topics in this forum
You cannot reply to topics in this forum
You cannot edit your posts in this forum
You cannot delete your posts in this forum
You cannot vote in polls in this forum
You cannot attach files in this forum
You can download files in this forum
Верим фактам, а не вранью Путина! Факт, что Правительство ведёт Россию к истреблению.
Так как численность населения падает, даже не смотря на приток эмигрантов!
Русская нация вымирает и вырождается, смешиваясь с эмигрантами!
Факт, что военных и граждан предприятий заставляют голосовать за партию Единая Россия и Путина
ПОД СТРАХОМ УВОЛЬНЕНИЯ!
Нам не нужно Правительство, блокирующее личную жизнь, интернет, нарушающее сохранность данных.
Все эти действия финансируются за счёт народа!