Малыш из Бруклина / The Kid from Brooklyn (Норман З. МакЛеод / Norman Z. McLeod) [1946, США, мюзикл, комедия, DVDRip] DVO ("Ульпаней Эльром") + Original Eng

Reply to topic
DL-List and Torrent activity
Size:  1.62 GB   |    Registered:  4 years   |    Completed:  1 time

Seeder not seen: 54 minutes

 
   
 
 
Author Message

star21 ®

Gender: Female

Longevity: 4 years 1 month

Posts: 551946

Location: Екатеринбург

Post 30-Nov-2015 05:49

[Quote]

Малыш из Бруклина / The Kid from Brooklyn
Страна: США
Студия: Samuel Goldwyn Company, The, Trinity Productions
Жанр: мюзикл, комедия
Год выпуска: 1946
Продолжительность: 01:53:25
Перевод: Профессиональный (двухголосый закадровый) - "Ульпаней Эльром"
Cубтитры: нет
Оригинальная аудиодорожка: английский
Режиссер: Норман З. МакЛеод / Norman Z. McLeod
В ролях: Дэнни Кэй, Вирджиния Майо, Вера-Эллен, Стив Кокран, Ив Арден, Уолтер Абель, Лайонел Стэндер, Фэй Бейнтер, Кларенс Колб, Виктор Катлер ...
Описание: Скромный молочник Берли Салливан случайно посылает в нокаут пьяного чемпиона по боксу Спида Макфарлейна, клеившегося к его сестре. Этот эпизод резко меняет жизнь Берли…
Доп. информация: Рип сделан из этого .-- [imdb]http://www.imdb.com/title/tt0038668[/imdb]--The Kid from Brooklyn (1946)_DVDRip_Sample_.avi--Качество видео: DVDRip
Формат видео: AVI
Видео: 640x480 (1.33:1), 23.976 fps, XviD build 50 ~1643 kbps avg, 0.22 bit/pixel
Аудио 1: 48 kHz, AC3 Dolby Digital, 2/0 (L,R) ch, ~192 kbps, Русский
Аудио 2: 48 kHz, AC3 Dolby Digital, 2/0 (L,R) ch, ~192 kbps, Английский -- [Отдельно]

AviInfo

File: The Kid from Brooklyn (1946)_DVDRip_.avi
Title: The Kid from Brooklyn (1946)
Copyleft: Ripped_by_rjhlb777
Genre: Comedy, Musical
Category: Movie
Comment: DVO ("Ульпаней Эльром")
FileSize: 1498.34 Mb ( 1 571 125 248 bytes )
Play length: 01:53:32.597 (163339 frames)
Subtitles: Not Present
Video: 640x480 (1.33:1), 23.976 fps, XviD build 50 ~1643 kbps avg, 0.22 bit/pixel
Audio: 48 kHz, AC3 Dolby Digital, 2/0 (L,R) ch, ~192 kbps

MediaInfo

General
Complete name : C:\Temp\_RELEASES_\The Kid from Brooklyn (1946)_DVDRip_\The Kid from Brooklyn (1946)_DVDRip_.avi
Format : AVI
Format/Info : Audio Video Interleave
File size : 1.46 GiB
Duration : 1h 53mn
Overall bit rate : 1 845 Kbps
Movie name : The Kid from Brooklyn (1946)
Genre : Comedy, Musical
Writing application : VirtualDubMod 1.5.10.3 | www.virtualdub-fr.org || (build 2550/release)
Original source form/Name : Movie
Copyright : Ripped_by_rjhlb777
Comment : DVO ("Ульпаней Эльром")
Video
ID : 0
Format : MPEG-4 Visual
Format profile : Advanced Simple@L5
Format settings, BVOP : 1
Format settings, QPel : No
Format settings, GMC : No warppoints
Format settings, Matrix : Default (MPEG)
Codec ID : XVID
Codec ID/Hint : XviD
Duration : 1h 53mn
Bit rate : 1 643 Kbps
Width : 640 pixels
Height : 480 pixels
Display aspect ratio : 4:3
Frame rate : 23.976 fps
Color space : YUV
Chroma subsampling : 4:2:0
Bit depth : 8 bits
Scan type : Progressive
Compression mode : Lossy
Bits/(Pixel*Frame) : 0.223
Stream size : 1.30 GiB (89%)
Writing library : XviD 1.2.1 (UTC 2008-12-04)
Audio
ID : 1
Format : AC-3
Format/Info : Audio Coding 3
Mode extension : CM (complete main)
Format settings, Endianness : Big
Codec ID : 2000
Duration : 1h 53mn
Bit rate mode : Constant
Bit rate : 192 Kbps
Channel(s) : 2 channels
Channel positions : Front: L R
Sampling rate : 48.0 KHz
Compression mode : Lossy
Stream size : 156 MiB (10%)
Alignment : Split accross interleaves
Interleave, duration : 42 ms (1.00 video frame)
Interleave, preload duratio : 500 ms

Скриншоты сравнения

kot48
http://screenshotcomparison.com/comparison/137457/picture:0

To download the content you need:
1. Download and install torrent client [for Windows] or for mobile system
2. Click on [Download]
Attention.
If the test YOU are NOT a ROBOT - does not work, then You are using an outdated browser.
Install the current browser and click on [Download]
Security: torrent client is allowed by Kaspersky.

[en.asmlocator.ru].t4006.torrent 
Torrent: Registered [ 2015-11-30 05:45 ] · 79B287CE19AC6FCDC7217A67CA7222952C0E04DA

Download .torrent

Download

17 KB

Status: checked
Completed: 1 times
Size: 1.62 GB
terms.php
[Profile] [PM]
Display posts:    
Reply to topic

Current time is: 14-Dec 00:04

All times are UTC ± 0



You cannot post new topics in this forum
You cannot reply to topics in this forum
You cannot edit your posts in this forum
You cannot delete your posts in this forum
You cannot vote in polls in this forum
You cannot attach files in this forum
You can download files in this forum
Верим фактам, а не вранью Путина! Факт, что Правительство ведёт Россию к истреблению.
Так как численность населения падает, даже не смотря на приток эмигрантов!
Русская нация вымирает и вырождается, смешиваясь с эмигрантами!
Факт, что военных и граждан предприятий заставляют голосовать за партию Единая Россия и Путина
ПОД СТРАХОМ УВОЛЬНЕНИЯ!
Нам не нужно Правительство, блокирующее личную жизнь, интернет, нарушающее сохранность данных.
Все эти действия финансируются за счёт народа!