Таверна «Ямайка» / Jamaica Inn (Альфред Хичкок / Alfred Hitchcock) [1939, Великобритания, криминал, приключения, BDRip] MVO (Film Prestige)

Reply to topic
DL-List and Torrent activity
Size:  1.45 GB   |    Registered:  4 years   |    Completed:  0 times

Seeder not seen: Never

 
   
 
 
Author Message

star21 ®

Gender: Female

Longevity: 4 years 1 month

Posts: 551946

Location: Екатеринбург

Post 30-Nov-2015 05:49

[Quote]

Таверна «Ямайка» / Jamaica Inn- Год выпуска: 1939
Страна: Великобритания
Жанр: криминал, приключения
Продолжительность: 01:39:50
Перевод: Профессиональный (двухголосый, закадровый) Film Prestige
Субтитры: нет-Режиссер: Альфред Хичкок / Alfred Hitchcock
В ролях: Чарльз Лотон, Хорас Ходжес, Морин О’Хара, Хэй Питри, Фредерик Пайпер, Эмлин Уильямс, Херберт Ломас, Клер Грит, Уильям Дэвлин, Джинн Де Ксалис
О фильме: Мэри, осиротев, приезжает на побережье Корнуолла к своим дяде и тётке, содержащим таверну «Ямайку». Вскоре Мэри понимает, что таверна является базой для банды, грабящей суда, разбившиеся о скалистый берег. Жизни сироты угрожает опасность, однако среди головорезов есть человек, готовый помочь девушке.-Релиз:
Автор: sociolog_melvas
Качество: BDRip (источник: AlekceyR76 / BD-Remux / 1080p)
Формат: AVI
Видео: 720x528 (1.36:1), 23,976 fps, XviD build 65 ~1875 kbps avg, 0.20 bit/pixel
Аудио: 48 kHz, AC3 Dolby Digital, 2/0 (L,R), ~192.00 kbps avg
Размер: 1483.36 Mb (1/3 DVD-R)
Скачать: Семпл-

Кадры из фильма


-

Mi

Формат : AVI
Формат/Информация : Audio Video Interleave
Размер файла : 1,45 Гбайт
Продолжительность : 1 ч. 39 м.
Общий поток : 2077 Кбит/сек
Название фильма : Таверна «Ямайка» / Jamaica Inn (1939) BDRip
Режиссёр : sociolog_melvas
Жанр : криминал, приключения
Программа кодирования : VirtualDubMod 1.5.10.2 (build 2540/release)
Примечание : 01.08.2015
Видео
Идентификатор : 0
Формат : MPEG-4 Visual
Профиль формата : Advanced Simple@L5
Параметр BVOP формата : 1
Параметр QPel формата : Нет
Параметр GMC формата : Без точки перехода
Параметр матрицы формата : Выборочная
Идентификатор кодека : XVID
Идентификатор кодека/Подсказка : XviD
Продолжительность : 1 ч. 39 м.
Битрейт : 1876 Кбит/сек
Ширина : 720 пикселей
Высота : 528 пикселей
Соотношение сторон : 4:3
Частота кадров : 23,976 кадра/сек
Цветовое пространство : YUV
Субдискретизация насыщенности : 4:2:0
Битовая глубина : 8 бит
Тип развёртки : Прогрессивная
Метод сжатия : С потерями
Бит/(Пиксели*Кадры) : 0.206
Размер потока : 1,31 Гбайт (90%)
Библиотека кодирования : XviD 65
Аудио
Идентификатор : 1
Формат : AC-3
Формат/Информация : Audio Coding 3
Расширение режима : CM (complete main)
Параметр Endianness формата : Big
Идентификатор кодека : 2000
Продолжительность : 1 ч. 39 м.
Вид битрейта : Постоянный
Битрейт : 192 Кбит/сек
Каналы : 2 канала
Расположение каналов : Front: L R
Частота : 48,0 КГц
Битовая глубина : 16 бит
Метод сжатия : С потерями
Размер потока : 137 Мбайт (9%)
Выравнивание : Разделение по промежуткам
Продолжительность промежутка : 42 мс. (1,00 видеокадр)
Время предзагрузки промежутка : 500 мс.
-

To download the content you need:
1. Download and install torrent client [for Windows] or for mobile system
2. Click on [Download]
Attention.
If the test YOU are NOT a ROBOT - does not work, then You are using an outdated browser.
Install the current browser and click on [Download]
Security: torrent client is allowed by Kaspersky.

[en.asmlocator.ru].t4005.torrent 
Torrent: Registered [ 2015-11-30 05:45 ] · 67A2323D80D08A356605F750B9B6D3ED068E51A0

Download .torrent

Download

15 KB

Status: checked
Completed: 0 times
Size: 1.45 GB
terms.php
[Profile] [PM]
Display posts:    
Reply to topic

Current time is: 08-Dec 11:09

All times are UTC ± 0



You cannot post new topics in this forum
You cannot reply to topics in this forum
You cannot edit your posts in this forum
You cannot delete your posts in this forum
You cannot vote in polls in this forum
You cannot attach files in this forum
You can download files in this forum
Верим фактам, а не вранью Путина! Факт, что Правительство ведёт Россию к истреблению.
Так как численность населения падает, даже не смотря на приток эмигрантов!
Русская нация вымирает и вырождается, смешиваясь с эмигрантами!
Факт, что военных и граждан предприятий заставляют голосовать за партию Единая Россия и Путина
ПОД СТРАХОМ УВОЛЬНЕНИЯ!
Нам не нужно Правительство, блокирующее личную жизнь, интернет, нарушающее сохранность данных.
Все эти действия финансируются за счёт народа!