Ангелов круче не бывает / Angels Hard as They Come (Джо Виола / Joe Viola ) [1971, США, боевик, драма, DVDRip] AVO (В. Горчаков)

Reply to topic
DL-List and Torrent activity
Size:  1.46 GB   |    Registered:  4 years   |    Completed:  0 times

Seeder not seen: Never

 
   
 
 
Author Message

star21 ®

Gender: Female

Longevity: 4 years 1 month

Posts: 551946

Location: Екатеринбург

Post 30-Nov-2015 05:49

[Quote]

-Ангелов круче не бываетAngels Hard as They Come- -Страна: США
Жанр: боевик, драма
Год выпуска: 1971
Продолжительность: 01:26:34-Перевод: Авторский (одноголосый закадровый),В Горчаков
Cубтитры: нет
Оригинальная аудиодорожка: нет-Режиссер: Джо Виола / Joe Viola-В ролях: Скотт Гленн, Чарльз Диркоп, Джеймс Инглехарт, Гилда Текстер, Гари Литтлджон, Гэри Бьюзи, Дон Карерра, Брендан Келли, Джанет Вуд, Дерти Денни-Описание: Лонг Джон, главарь банды байкеров под названием «АНГЕЛЫ», всегда думал, что ничто не может тронуть его. Но когда враждующая банда «Драконов» жестоко насилует и убивает невинную девушку-хиппи, он понимает, что впереди одно — кровь и много крови!-Сэмпл: https://yadi.sk/i/cflP0UiHiFz9R-Качество видео: DVDRip
Формат видео: AVI-Видео: 640х480 (4:3), XviD build 73 ~ 2 213 kbps, 23.976 fps, 0.30 bit/pixel
Аудио: 48 kHz, AC3 Dolby Digital, 2/0 (L,R), ~192.00 kbps avg (В. Горчаков)-
-

MediaInfo

General
Format : AVI
Format/Info : Audio Video Interleave
File size : 1.46 GiB
Duration : 1h 26mn
Overall bit rate : 2 414 Kbps
Writing application : VirtualDubMod 1.5.10.2 (build 2540/release)
Writing library : VirtualDubMod build 2540/release
Video
ID : 0
Format : MPEG-4 Visual
Format profile : Advanced Simple@L5
Format settings, BVOP : 1
Format settings, QPel : No
Format settings, GMC : No warppoints
Format settings, Matrix : Custom
Codec ID : XVID
Codec ID/Hint : XviD
Duration : 1h 26mn
Bit rate : 2 213 Kbps
Width : 640 pixels
Height : 480 pixels
Display aspect ratio : 4:3
Frame rate : 23.976 fps
Color space : YUV
Chroma subsampling : 4:2:0
Bit depth : 8 bits
Scan type : Progressive
Compression mode : Lossy
Bits/(Pixel*Frame) : 0.300
Stream size : 1.34 GiB (92%)
Writing library : XviD 73
Audio
ID : 1
Format : AC-3
Format/Info : Audio Coding 3
Mode extension : CM (complete main)
Format settings, Endianness : Big
Codec ID : 2000
Duration : 1h 26mn
Bit rate mode : Constant
Bit rate : 192 Kbps
Channel(s) : 2 channels
Channel positions : Front: L R
Sampling rate : 48.0 KHz
Compression mode : Lossy
Stream size : 119 MiB (8%)
Alignment : Split accross interleaves
Interleave, duration : 42 ms (1.00 video frame)
Interleave, preload duratio : 500 ms

Скриншоты

-

To download the content you need:
1. Download and install torrent client [for Windows] or for mobile system
2. Click on [Download]
Attention.
If the test YOU are NOT a ROBOT - does not work, then You are using an outdated browser.
Install the current browser and click on [Download]
Security: torrent client is allowed by Kaspersky.

[en.asmlocator.ru].t4004.torrent 
Torrent: Registered [ 2015-11-30 05:45 ] · F40B9838E3BF426AC6A6CA3DD2C212322E636CD1

Download .torrent

Download

15 KB

Status: checked
Completed: 0 times
Size: 1.46 GB
terms.php
[Profile] [PM]
Display posts:    
Reply to topic

Current time is: 10-Dec 09:08

All times are UTC ± 0



You cannot post new topics in this forum
You cannot reply to topics in this forum
You cannot edit your posts in this forum
You cannot delete your posts in this forum
You cannot vote in polls in this forum
You cannot attach files in this forum
You can download files in this forum
Верим фактам, а не вранью Путина! Факт, что Правительство ведёт Россию к истреблению.
Так как численность населения падает, даже не смотря на приток эмигрантов!
Русская нация вымирает и вырождается, смешиваясь с эмигрантами!
Факт, что военных и граждан предприятий заставляют голосовать за партию Единая Россия и Путина
ПОД СТРАХОМ УВОЛЬНЕНИЯ!
Нам не нужно Правительство, блокирующее личную жизнь, интернет, нарушающее сохранность данных.
Все эти действия финансируются за счёт народа!