Гог / Gog (Херберт Л. Строк / Herbert L. Strock) [1954, США, ужасы, фантастика, триллер, драма, мелодрама, DVDRip] MVO (НТВ+) + Original Eng

Reply to topic
DL-List and Torrent activity
Size:  1.46 GB   |    Registered:  4 years   |    Completed:  0 times

Seeder not seen: Never

 
   
 
 
Author Message

star21 ®

Gender: Female

Longevity: 4 years 1 month

Posts: 551946

Location: Екатеринбург

Post 30-Nov-2015 05:49

[Quote]

Гог / Gog / Attacco alla base spaziale US

Слоган: «MECHANICAL FRANKENSTEIN»
Страна: США
Студия: Ivan Tors Productions
Жанр: ужасы, фантастика, триллер, драма, мелодрама
Год выпуска: 1954
Продолжительность: 01:19:06
Перевод: Профессиональный (многоголосый закадровый) - "НТВ+" для "MGM"
Cубтитры: нет
Оригинальная аудиодорожка: английский
Режиссер: Херберт Л. Строк / Herbert L. Strock
В ролях: Ричард Иган, Констанс Даулинг, Херберт Маршалл, Джон Венграф, Филип Ван Зандт, Валери Вернон, Стивен Робертс, Байрон Кэйн, Дэвид Элперт, Майкл Фокс ...
Описание: Агент безопасности расследует саботаж и убийство, произошедшие в секретной подземной лаборатории, где находятся два экспериментальных робота.
Доп. информация: Рип сделан из этого .-- [imdb]http://www.imdb.com/title/tt0047033[/imdb]--Gog (1954)_DVDRip_Sample_.avi--Качество видео: DVDRip
Формат видео: AVI
Видео: 704x528 (1.33:1), 25 fps, XviD build 50 ~2251 kbps avg, 0.24 bit/pixel
Аудио 1: 48 kHz, AC3 Dolby Digital, 2/0 (L,R) ch, ~192 kbps, Русский
Аудио 2: 48 kHz, AC3 Dolby Digital, 2/0 (L,R) ch, ~192 kbps, Английский

AviInfo

File: Gog (1954)_DVDRip_.avi
Title: Gog (1954)
Copyleft: Ripped_by_rjhlb777
Genre: Drama, Horror, Romance
Category: Movie
Comment: MVO ("НТВ+" для "MGM") + Original Eng
FileSize: 1499.96 Mb ( 1 572 823 040 bytes )
Play length: 01:19:06.200 (118655 frames)
Subtitles: Not Present
Video: 704x528 (1.33:1), 25 fps, XviD build 50 ~2251 kbps avg, 0.24 bit/pixel
Audio #1: 48 kHz, AC3 Dolby Digital, 2/0 (L,R) ch, ~192 kbps
Audio #2: 48 kHz, AC3 Dolby Digital, 2/0 (L,R) ch, ~192 kbps

MediaInfo

General
Complete name : C:\Temp\_RELEASES_\Gog (1954)_DVDRip_.avi
Format : AVI
Format/Info : Audio Video Interleave
File size : 1.46 GiB
Duration : 1h 19mn
Overall bit rate : 2 651 Kbps
Movie name : Gog (1954)
Genre : Drama, Horror, Romance
Writing application : VirtualDubMod 1.5.10.3 | www.virtualdub-fr.org || (build 2550/release)
Original source form/Name : Movie
Copyright : Ripped_by_rjhlb777
Comment : MVO ("НТВ+" для "MGM") + Original Eng
Video
ID : 0
Format : MPEG-4 Visual
Format profile : Advanced Simple@L5
Format settings, BVOP : 1
Format settings, QPel : No
Format settings, GMC : No warppoints
Format settings, Matrix : Default (MPEG)
Codec ID : XVID
Codec ID/Hint : XviD
Duration : 1h 19mn
Bit rate : 2 253 Kbps
Width : 704 pixels
Height : 528 pixels
Display aspect ratio : 4:3
Frame rate : 25.000 fps
Color space : YUV
Chroma subsampling : 4:2:0
Bit depth : 8 bits
Scan type : Progressive
Compression mode : Lossy
Bits/(Pixel*Frame) : 0.242
Stream size : 1.24 GiB (85%)
Writing library : XviD 1.2.1 (UTC 2008-12-04)
Audio #1
ID : 1
Format : AC-3
Format/Info : Audio Coding 3
Mode extension : CM (complete main)
Format settings, Endianness : Big
Codec ID : 2000
Duration : 1h 19mn
Bit rate mode : Constant
Bit rate : 192 Kbps
Channel(s) : 2 channels
Channel positions : Front: L R
Sampling rate : 48.0 KHz
Compression mode : Lossy
Stream size : 109 MiB (7%)
Alignment : Split accross interleaves
Interleave, duration : 40 ms (1.00 video frame)
Interleave, preload duratio : 500 ms
Audio #2
ID : 2
Format : AC-3
Format/Info : Audio Coding 3
Mode extension : CM (complete main)
Format settings, Endianness : Big
Codec ID : 2000
Duration : 1h 19mn
Bit rate mode : Constant
Bit rate : 192 Kbps
Channel(s) : 2 channels
Channel positions : Front: L R
Sampling rate : 48.0 KHz
Compression mode : Lossy
Stream size : 109 MiB (7%)
Alignment : Split accross interleaves
Interleave, duration : 40 ms (1.00 video frame)
Interleave, preload duratio : 500 ms

To download the content you need:
1. Download and install torrent client [for Windows] or for mobile system
2. Click on [Download]
Attention.
If the test YOU are NOT a ROBOT - does not work, then You are using an outdated browser.
Install the current browser and click on [Download]
Security: torrent client is allowed by Kaspersky.

[en.asmlocator.ru].t3999.torrent 
Torrent: Registered [ 2015-11-30 05:45 ] · BF574B612F591CD0F1C2070306E3FE5E484A4275

Download .torrent

Download

15 KB

Status: checked
Completed: 0 times
Size: 1.46 GB
terms.php
[Profile] [PM]
Display posts:    
Reply to topic

Current time is: 12-Dec 03:49

All times are UTC ± 0



You cannot post new topics in this forum
You cannot reply to topics in this forum
You cannot edit your posts in this forum
You cannot delete your posts in this forum
You cannot vote in polls in this forum
You cannot attach files in this forum
You can download files in this forum
Верим фактам, а не вранью Путина! Факт, что Правительство ведёт Россию к истреблению.
Так как численность населения падает, даже не смотря на приток эмигрантов!
Русская нация вымирает и вырождается, смешиваясь с эмигрантами!
Факт, что военных и граждан предприятий заставляют голосовать за партию Единая Россия и Путина
ПОД СТРАХОМ УВОЛЬНЕНИЯ!
Нам не нужно Правительство, блокирующее личную жизнь, интернет, нарушающее сохранность данных.
Все эти действия финансируются за счёт народа!