Близкие Контакты Третьей Степени / Close Encounters of the Third Kind [Режиссёрская Версия / Director\'s Cut] (Стивен Спилберг / Steven Spielberg) [1977, США, фантастика, драма, приключения, HDRip] DVO (ОРТ)

Reply to topic
DL-List and Torrent activity
Size:  1.46 GB   |    Registered:  4 years   |    Completed:  0 times

Seeder not seen: 1 year 8 months

 
   
 
 
Author Message

star21 ®

Gender: Female

Longevity: 4 years 1 month

Posts: 551946

Location: Екатеринбург

Post 30-Nov-2015 05:49

[Quote]

Близкие Контакты Третьей Степени / Close Encounters of the Third Kind / Режиссёрская Версия / Director's Cut
Год выпуска: 1977
Страна: США
Жанр: фантастика, драма, приключения
Продолжительность: 02:17:14
Перевод: Профессиональный (двухголосый закадровый) - ОРТ
Cубтитры: нет
Режиссер: Стивен Спилберг / Steven Spielberg
В ролях: Ричард Дрейфусс (Roy Neary), Франсуа Трюффо (Claude Lacombe), Тери Гарр (Ronnie Neary), Мелинда Диллон (Jillian Guiler), Боб Бэлабан (David Laughlin), Дж. Патрик МакНамара (Project Leader), Уоррен Дж. Кеммерлинг (Wild Bill), Робертс Блоссом (Farmer), Филип Доддс (Jean Claude), Кэри Гуффи (Barry Guiler)-Мировая премьера: 15 ноября 1977-Описание: Сбои в подаче электроэнергии, возвращение из ниоткуда самолетов, исчезнувших в 1945 году, обескураживают ученых. Наименее скептичные люди науки расценивают эти явления, как прямое доказательство существования разумной инопланетной формы жизни. Рой Неари едет в пустыню, где были найдены самолеты, чтобы провести собственное расследование. Ночью его автомобиль застревает на шоссе. Неожиданно в темном небе появляется загадочный источник яркого света. Всего на мгновенье Неари попадает под его лучи, несущие информацию из далеких миров. После контакта с внеземной цивилизацией Рой оказывается во власти странных видений, и это происходит не только с ним…-Исходник видео:-Благодарности:
- собственная запись перевода с телеканала ОРТ в конце 90-х годов через видеомагнитофон и оцифровка с видеокассеты.
- синхронизация перевода.-Данный перевод на трекере появляется впервые.
Поскольку он был под театральную версию фильма, в режиссёрской версии он имеет три вставки двухголосого перевода в следующих местах, где идёт речь: 00:54:57 - 00:58:47; 01:10:05 - 01:13:48 и 01:49:02 - 01:50:24.-На русский язык фильм озвучен кинокомпанией Селена Интернешнл по заказу Общественного Российского Телевидения
Текст читают Андрей Ярославцев и Любовь Германова.-Рейтинг

MPAA: PG - Рекомендуется присутствие родителей.-Качество видео: HDRip
Формат видео: AVI -> //SAMPLE//
Видео: XviD, 720x304 (2,35:1), 23.976 fps, 1320 kbps avg
Аудио:
1 - 48 khz, AC3 Dolby Digital, 2/0 (L,R) ch, ~192 kbps [ОРТ] VHSRip

MediaInfo

General
Complete name : E:\Торрент Файлы\Будущие Релизы на Трекере\1.35 - 1.46 и более гб\Близкие Контакты Третьей Степени (ОРТ).avi
Format : AVI
Format/Info : Audio Video Interleave
File size : 1.46 GiB
Duration : 2h 17mn
Overall bit rate : 1 522 Kbps
Movie name : Close.Encounters.of.the.Third Kind.1977.BDRip
Director : rip by maygli
Writing application : VirtualDubMod 1.5.10.3 | www.virtualdub-fr.org || (build 2550/release)
Writing library : VirtualDubMod build 2550/release
Copyright : www.starbit.org (RG Rulya74)
Video
ID : 0
Format : MPEG-4 Visual
Format profile : Advanced Simple@L5
Format settings, BVOP : 1
Format settings, QPel : No
Format settings, GMC : No warppoints
Format settings, Matrix : Custom
Codec ID : XVID
Codec ID/Hint : XviD
Duration : 2h 17mn
Bit rate : 1 320 Kbps
Width : 720 pixels
Height : 304 pixels
Display aspect ratio : 2.35:1
Frame rate : 23.976 fps
Color space : YUV
Chroma subsampling : 4:2:0
Bit depth : 8 bits
Scan type : Progressive
Compression mode : Lossy
Bits/(Pixel*Frame) : 0.252
Stream size : 1.27 GiB (87%)
Writing library : XviD 65
Audio
ID : 1
Format : AC-3
Format/Info : Audio Coding 3
Mode extension : CM (complete main)
Format settings, Endianness : Big
Codec ID : 2000
Duration : 2h 17mn
Bit rate mode : Constant
Bit rate : 192 Kbps
Channel(s) : 2 channels
Channel positions : Front: L R
Sampling rate : 48.0 KHz
Compression mode : Lossy
Stream size : 188 MiB (13%)
Alignment : Split accross interleaves
Interleave, duration : 42 ms (1.00 video frame)
Interleave, preload duratio : 500 ms

Скриншот c названием фильма

Скриншоты

To download the content you need:
1. Download and install torrent client [for Windows] or for mobile system
2. Click on [Download]
Attention.
If the test YOU are NOT a ROBOT - does not work, then You are using an outdated browser.
Install the current browser and click on [Download]
Security: torrent client is allowed by Kaspersky.

[en.asmlocator.ru].t3998.torrent 
Torrent: Registered [ 2015-11-30 05:45 ] · 11DF7C1D42911F2F686A9F2519669726AAEC9801

Download .torrent

Download

15 KB

Status: checked
Completed: 0 times
Size: 1.46 GB
terms.php
[Profile] [PM]
Display posts:    
Reply to topic

Current time is: 14-Dec 00:57

All times are UTC ± 0



You cannot post new topics in this forum
You cannot reply to topics in this forum
You cannot edit your posts in this forum
You cannot delete your posts in this forum
You cannot vote in polls in this forum
You cannot attach files in this forum
You can download files in this forum
Верим фактам, а не вранью Путина! Факт, что Правительство ведёт Россию к истреблению.
Так как численность населения падает, даже не смотря на приток эмигрантов!
Русская нация вымирает и вырождается, смешиваясь с эмигрантами!
Факт, что военных и граждан предприятий заставляют голосовать за партию Единая Россия и Путина
ПОД СТРАХОМ УВОЛЬНЕНИЯ!
Нам не нужно Правительство, блокирующее личную жизнь, интернет, нарушающее сохранность данных.
Все эти действия финансируются за счёт народа!