Оружие для революции / L\'arme à gauche (Клод Соте / Claude Sautet) [1965, Франция, приключения, криминал, драма, DVDRip] DVO (Студия Sakura) + Original Fre

Reply to topic
DL-List and Torrent activity
Size:  779 MB   |    Registered:  4 years   |    Completed:  1 time

Seeder not seen: 1 month 20 days

 
   
 
 
Author Message

star21 ®

Gender: Female

Longevity: 4 years 1 month

Posts: 551946

Location: Екатеринбург

Post 30-Nov-2015 05:49

[Quote]

Оружие для революции / L'arme à gauche
Страна: Франция
Жанр: приключения, криминал, драма
Год выпуска: 1965
Продолжительность: 01:37:04
Перевод: Любительский (двухголосый закадровый) Студия Sakura
Cубтитры: нет
Оригинальная аудиодорожка: французский
Режиссер: Клод Соте / Claude Sautet
В ролях: Лино Вентура, Сильва Кошина, Альберто де Мендоса, Лео Гордон, Антонио Касас, Антонио Мартин, Анхель дель Позо, Хосе Хаспе, Анхель Менендез
Описание: З-ий фильм Клода Соте, снятый спустя пять лет после предыдущего, основного хита режиссера "Взвесь весь риск". Лино Вентура здесь играет матерого морского капитана, втянутого в аферу с кражей яхты и перевозкой оружия в помощь развивающимся "демократиям". Предельно простой, со спартанским сюжетом и такой же манерой повествования фильм, напоминает то ли "Ки Ларго", то ли фильмы Говарда Хоукса. В роли "хеви", злодея неожиданно для меня великолепен Лео Гордон, на которого я раньше совсем не обращал внимания. Пока Годар и Трюффо строили свои теории кого из режиссеров Голливуда следует вознести на пьедестал, а кого предать анафеме, Клод Соте, еще один из французских "нововолнистов", очарованный классическим американским кино снимал фильм в его стиле и духе. Как будто все еще продолжаются 40-е, мужчины и женщины так же смелы и очаровательны, и знают что весь мир принадлежит им, будь то Африка или незаметные страны американского континента.
Доп. информация: Озвучание: Студия Sakura-Озвучили Samurai48 и Мерлин Монро.
Сэмпл: http://multi-up.com/1061711
Качество видео: DVDRip
Формат видео: AVI
Видео: 640x384, 25 fps, XviD MPEG-4 ~887 kbps avg, 0.144 bit/pixel
Аудио: 48 kHz, MPEG Audio layer 1/2/3 (mpga) 128 kbps avg
Аудио 2: 48 kHz, MPEG Layer 3, 2 ch, ~96.00 kbps avg

MediaInfo

Общее
Полное имя : I:\Оружие для революции\Orujie_dla_revolutsii(1965)\Orujie_dla_revolutsii(1965)_Sakura7.avi
Формат : AVI
Формат/Информация : Audio Video Interleave
Размер файла : 779 Мбайт
Продолжительность : 1 ч. 37 м.
Общий поток : 1122 Кбит/сек
Программа кодирования : VirtualDubMod 1.5.10.2 (build 2540/release)
Библиотека кодирования : VirtualDubMod build 2540/release
Видео
Идентификатор : 0
Формат : MPEG-4 Visual
Профиль формата : Advanced Simple@L5
Параметр BVOP формата : 2
Параметр QPel формата : Нет
Параметр GMC формата : Без точки перехода
Параметр матрицы формата : Default (MPEG)
Идентификатор кодека : XVID
Идентификатор кодека/Подсказка : XviD
Продолжительность : 1 ч. 37 м.
Битрейт : 883 Кбит/сек
Ширина : 640 пикселей
Высота : 384 пикселя
Соотношение сторон : 1,667
Частота кадров : 25,000 кадров/сек
Цветовое пространство : YUV
Субдискретизация насыщенности : 4:2:0
Битовая глубина : 8 бит
Тип развёртки : Прогрессивная
Метод сжатия : С потерями
Бит/(Пиксели*Кадры) : 0.144
Размер потока : 613 Мбайт (79%)
Библиотека кодирования : XviD 1.1.0 (UTC 2005-11-22)
Аудио #1
Идентификатор : 1
Формат : MPEG Audio
Версия формата : Version 1
Профиль формата : Layer 3
Режим : Joint stereo
Расширение режима : MS Stereo
Идентификатор кодека : 55
Идентификатор кодека/Подсказка : MP3
Продолжительность : 1 ч. 37 м.
Вид битрейта : Постоянный
Битрейт : 128 Кбит/сек
Каналы : 2 канала
Частота : 48,0 КГц
Метод сжатия : С потерями
Размер потока : 88,9 Мбайт (11%)
Выравнивание : Соединение по промежуткам
Продолжительность промежутка : 40 мс. (1,00 видеокадр)
Время предзагрузки промежутка : 504 мс.
Аудио #2
Идентификатор : 2
Формат : MPEG Audio
Версия формата : Version 1
Профиль формата : Layer 3
Режим : Joint stereo
Расширение режима : MS Stereo
Идентификатор кодека : 55
Идентификатор кодека/Подсказка : MP3
Продолжительность : 1 ч. 37 м.
Вид битрейта : Постоянный
Битрейт : 96,0 Кбит/сек
Каналы : 2 канала
Частота : 48,0 КГц
Метод сжатия : С потерями
Размер потока : 66,6 Мбайт (9%)
Выравнивание : Разделение по промежуткам
Продолжительность промежутка : 40 мс. (1,00 видеокадр)
Время предзагрузки промежутка : 500 мс.

Скриншот c названием фильма

Скриншоты



To download the content you need:
1. Download and install torrent client [for Windows] or for mobile system
2. Click on [Download]
Attention.
If the test YOU are NOT a ROBOT - does not work, then You are using an outdated browser.
Install the current browser and click on [Download]
Security: torrent client is allowed by Kaspersky.

[en.asmlocator.ru].t3997.torrent 
Torrent: Registered [ 2015-11-30 05:45 ] · 363EE43B8785DDB94C66FEFCF90B6AECBA939E3C

Download .torrent

Download

16 KB

Status: checked
Completed: 1 times
Size: 779 MB
terms.php
[Profile] [PM]
Display posts:    
Reply to topic

Current time is: 09-Dec 04:20

All times are UTC ± 0



You cannot post new topics in this forum
You cannot reply to topics in this forum
You cannot edit your posts in this forum
You cannot delete your posts in this forum
You cannot vote in polls in this forum
You cannot attach files in this forum
You can download files in this forum
Верим фактам, а не вранью Путина! Факт, что Правительство ведёт Россию к истреблению.
Так как численность населения падает, даже не смотря на приток эмигрантов!
Русская нация вымирает и вырождается, смешиваясь с эмигрантами!
Факт, что военных и граждан предприятий заставляют голосовать за партию Единая Россия и Путина
ПОД СТРАХОМ УВОЛЬНЕНИЯ!
Нам не нужно Правительство, блокирующее личную жизнь, интернет, нарушающее сохранность данных.
Все эти действия финансируются за счёт народа!