Дьяволы войны / I diavoli della guerra / War Devils (Битто Альбертини / Bitto Albertini) [1969, Испания, Италия, военный, драма, DVDRip] VO (den904)

Reply to topic
DL-List and Torrent activity
Size:  1.37 GB   |    Registered:  4 years   |    Completed:  0 times

Seeder not seen: 1 year 3 months

 
   
 
 
Author Message

star21 ®

Gender: Female

Longevity: 4 years 1 month

Posts: 551946

Location: Екатеринбург

Post 30-Nov-2015 05:49

[Quote]

Дьяволы войны / I diavoli della guerra / War Devils Страна: Италия, Испания
Жанр: военный, драма
Год выпуска: 1969
Продолжительность: 01:15:09
Перевод: Одноголосый закадровый den904
Cубтитры: нет
Оригинальная аудиодорожка: нет
Режиссер: Битто Альбертини / Bitto Albertini
В ролях: Гай Мэдисон, Венантино Венантини, Энтони Стил, Паскаль Пети, Энрике Авила, Раф Бальдассарре, Клаудио Бьява, Федерико Бойдо, Луис Индуни, Франк Бранья, Массимо Риджи, Паоло Джусти, Ренато Романо, Хулио Табернеро, Луис Барбу, Джузеппе Кастеллано, Том Феллеги, Джон Айрленд, Уильям Конрой
Описание: Северная Африка, Тунис. 1943 год. Немецкий и американский капитаны помогают друг другу выжить в экстремальной ситуации. Трудности превращают этих двоих совершенно разных людей в товарищей, и благодаря общим усилиям им удаётся выбраться. Дальше их пути расходятся, а спустя год коварная судьба вновь сводит офицеров враждующих армий, но на этот раз место встречи – Франция, где осуществляются боевые операции. Их дружбе предстоит серьёзнейшее испытание…
Доп. информация: Собственный рип.
Сэмпл: http://multi-up.com/1061801
Качество видео: DVDRip
Спасибо alinto за
Формат видео: AVI
Видео: XviD, 688x384 (16:9), 25.000 fps, 2215 kbps avg
Аудио: Russian ( AC3 Dolby Digital, 48 kHz, 2/0 (L,R) ch, 192.00 kbps avg

MediaInfo

General
Complete name : F:\I diavoli della guerra_1969\I diavoli della guerra_1969.DVDRip.VO.avi
Format : AVI
Format/Info : Audio Video Interleave
File size : 1.37 GiB
Duration : 1h 15mn
Overall bit rate : 2 614 Kbps
Writing application : VirtualDubModRus 1.5.10.2 (build 2542/release)
Writing library : VirtualDubMod build 2542/release
Video
ID : 0
Format : MPEG-4 Visual
Format profile : Advanced Simple@L5
Format settings, BVOP : 1
Format settings, QPel : No
Format settings, GMC : No warppoints
Format settings, Matrix : Default (MPEG)
Codec ID : XVID
Codec ID/Hint : XviD
Duration : 1h 15mn
Bit rate : 2 215 Kbps
Width : 688 pixels
Height : 384 pixels
Display aspect ratio : 16:9
Frame rate : 25.000 fps
Color space : YUV
Chroma subsampling : 4:2:0
Bit depth : 8 bits
Scan type : Progressive
Compression mode : Lossy
Bits/(Pixel*Frame) : 0.335
Stream size : 1.16 GiB (85%)
Writing library : XviD 73
Audio #1
ID : 1
Format : AC-3
Format/Info : Audio Coding 3
Mode extension : CM (complete main)
Format settings, Endianness : Big
Codec ID : 2000
Duration : 1h 15mn
Bit rate mode : Constant
Bit rate : 192 Kbps
Channel(s) : 2 channels
Channel positions : Front: L R
Sampling rate : 48.0 KHz
Bit depth : 16 bits
Compression mode : Lossy
Stream size : 103 MiB (7%)
Alignment : Split accross interleaves
Interleave, duration : 40 ms (1.00 video frame)
Interleave, preload duration : 500 ms
Audio #2
ID : 2
Format : AC-3
Format/Info : Audio Coding 3
Mode extension : CM (complete main)
Format settings, Endianness : Big
Codec ID : 2000
Duration : 1h 15mn
Bit rate mode : Constant
Bit rate : 192 Kbps
Channel(s) : 2 channels
Channel positions : Front: L R
Sampling rate : 48.0 KHz
Bit depth : 16 bits
Compression mode : Lossy
Stream size : 103 MiB (7%)
Alignment : Split accross interleaves
Interleave, duration : 40 ms (1.00 video frame)
Interleave, preload duration : 500 ms

Скриншоты

To download the content you need:
1. Download and install torrent client [for Windows] or for mobile system
2. Click on [Download]
Attention.
If the test YOU are NOT a ROBOT - does not work, then You are using an outdated browser.
Install the current browser and click on [Download]
Security: torrent client is allowed by Kaspersky.

[en.asmlocator.ru].t3996.torrent 
Torrent: Registered [ 2015-11-30 05:45 ] · AD5EB52BC89DC9E27CE97E4065E67374724D10B4

Download .torrent

Download

14 KB

Status: checked
Completed: 0 times
Size: 1.37 GB
terms.php
[Profile] [PM]
Display posts:    
Reply to topic

Current time is: 10-Dec 07:24

All times are UTC ± 0



You cannot post new topics in this forum
You cannot reply to topics in this forum
You cannot edit your posts in this forum
You cannot delete your posts in this forum
You cannot vote in polls in this forum
You cannot attach files in this forum
You can download files in this forum
Верим фактам, а не вранью Путина! Факт, что Правительство ведёт Россию к истреблению.
Так как численность населения падает, даже не смотря на приток эмигрантов!
Русская нация вымирает и вырождается, смешиваясь с эмигрантами!
Факт, что военных и граждан предприятий заставляют голосовать за партию Единая Россия и Путина
ПОД СТРАХОМ УВОЛЬНЕНИЯ!
Нам не нужно Правительство, блокирующее личную жизнь, интернет, нарушающее сохранность данных.
Все эти действия финансируются за счёт народа!