Носферату, симфония ужаса / Nosferatu, eine Symphonie des Grauens (Фридрих Вильгельм Мурнау / F.W. Murnau) [1922, Германия, ужасы, экранизация, DVB-AVC] [2007 DVD/Blu-Ray Special Edition Release вирированная версия] VO (Kino Polska) + Sub (Eng)

Reply to topic
DL-List and Torrent activity
Size:  593 MB   |    Registered:  4 years   |    Completed:  0 times

Seeder not seen: 1 year 9 months

 
   
 
 
Author Message

star21 ®

Gender: Female

Longevity: 4 years 1 month

Posts: 551946

Location: Екатеринбург

Post 30-Nov-2015 05:49

[Quote]

Носферату, симфония ужаса
Nosferatu, a Symphony of Horror- Страна: Германия
Жанр: ужасы, экранизация
Год выпуска: 1922
Продолжительность: 01:29:30Перевод: Студийный (одноголосый закадровый) по заказу Kino Polska на производственно-технической базе Студии "Акцент"
Cубтитры: английские
Режиссер: Фридрих Вильгельм Мурнау / F.W. Murnau
В ролях: Макс Шрек, Густав фон Вангенхайм, Грета Шрёдер, Георг Г. Шнель, Рут Ландшорфф
Описание: По готическому роману Брэма Стокера / Bram Stoker "Дракула" (1897).
Молодой клерк Хуттер из Бремена первой трети XIX века отправляется за тридевять земель, в карпатские леса, к инфернальному графу Орлоку, владельцу замка, решившему перебраться в крупный город. Гость выясняет, что Орлок, известный и как Носферату, — вампир, и от его заражающего укуса Хуттера спасает лишь супруга Нина, сверхъестественно сильно влюблённая в скромного и безвольного служащего конторы по продаже недвижимого имущества. Именно она понимает, какое зло несёт в себе мрачный граф.
Доп. информация: Filmbox Arthouse IPTV
Награды: включен в Зал славы Online Film & Television Association 2010; номинация на премию "Сатурн" за восстановленную версию DVD/Blu-Ray Special Edition Release - Academy of Science Fiction, Fantasy & Horror Films, USA 2014.
[imdb]http://www.imdb.com/title/tt0013442[/imdb]
Качество видео: DVB-AVC
Формат видео: MKV
Видео: AVC (H.264), 720x576@1024x576 (16:9), 25 fps, ~779 kbps avg, 0.078 bit/pixel
Аудио: MPEG Audio 2, 2 ch, 48 kHz, ~128.00 kbps avg
Формат субтитров: hardsub (неотключаемые)
Доп. информация о субтитрах: интертиры: озвучание

MediaInfo

ОбщееУникальный идентификатор                 : 253582962545389244457845611744726686349 (0xBEC64D561D6A8C968EF19B44DD591A8D)Полное имя                               : F:\My Torrents 3\[apreder]Nosferatu_eine_Symphonie_des_Grauens(1922)DVB.mkvФормат                                   : MatroskaВерсия формата                           : Version 2Размер файла                             : 593 МбайтПродолжительность                        : 1 ч. 29 м.Общий поток                              : 926 Кбит/секДата кодирования                         : UTC 2015-08-09 09:20:21Программа кодирования                    : mkvmerge v8.2.0 ('World of Adventure') 64bitБиблиотека кодирования                   : libebml v1.3.1 + libmatroska v1.4.2Attachements                             : cover.jpg / cover_small.jpg
ВидеоИдентификатор : 2Формат : AVCФормат/Информация : Advanced Video CodecПрофиль формата : Main@L3Параметр CABAC формата : ДаПараметр ReFrames формата : 3 кадраИдентификатор кодека : V_MPEG4/ISO/AVCПродолжительность : 1 ч. 29 м.Битрейт : 779 Кбит/секШирина : 720 пикселейВысота : 576 пикселейСоотношение сторон : 16:9Соотношение сторон в оригинале : 16:9Режим частоты кадров : ПостоянныйЧастота кадров : 24,194 кадра/секЧастота кадров в оригинале : 25,000 кадров/секСтандарт вещания : ComponentЦветовое пространство : YUVСубдискретизация насыщенности : 4:2:0Битовая глубина : 8 битТип развёртки : ЧересстрочнаяПорядок развёртки : Верхнее поле первоеБит/(Пиксели*Кадры) : 0.078Размер потока : 499 Мбайт (84%)Default : ДаForced : Нетcolour_range : LimitedОсновные цвета : BT.601 PALХарактеристики трансфера : BT.470 System B, BT.470 System GКоэффициенты матрицы : BT.601
АудиоИдентификатор : 1Формат : MPEG AudioВерсия формата : Version 1Профиль формата : Layer 2Идентификатор кодека : A_MPEG/L2Идентификатор кодека/Подсказка : MP2Продолжительность : 1 ч. 29 м.Вид битрейта : ПостоянныйБитрейт : 128 Кбит/секКаналы : 2 каналаЧастота : 48,0 КГцМетод сжатия : С потерямиЗадержка видео : -19 мс.Размер потока : 81,9 Мбайт (14%)Язык : RussianDefault : ДаForced : Нет

Скриншот c названием фильма

Скриншоты


Резервные скриншоты


-[2'536]

To download the content you need:
1. Download and install torrent client [for Windows] or for mobile system
2. Click on [Download]
Attention.
If the test YOU are NOT a ROBOT - does not work, then You are using an outdated browser.
Install the current browser and click on [Download]
Security: torrent client is allowed by Kaspersky.

[en.asmlocator.ru].t3994.torrent 
Torrent: Registered [ 2015-11-30 05:45 ] · 525818FDB96E0AE6284A09C9471955C5C3CA12D1

Download .torrent

Download

12 KB

Status: checked
Completed: 0 times
Size: 593 MB
terms.php
[Profile] [PM]
Display posts:    
Reply to topic

Current time is: 14-Dec 21:50

All times are UTC ± 0



You cannot post new topics in this forum
You cannot reply to topics in this forum
You cannot edit your posts in this forum
You cannot delete your posts in this forum
You cannot vote in polls in this forum
You cannot attach files in this forum
You can download files in this forum
Верим фактам, а не вранью Путина! Факт, что Правительство ведёт Россию к истреблению.
Так как численность населения падает, даже не смотря на приток эмигрантов!
Русская нация вымирает и вырождается, смешиваясь с эмигрантами!
Факт, что военных и граждан предприятий заставляют голосовать за партию Единая Россия и Путина
ПОД СТРАХОМ УВОЛЬНЕНИЯ!
Нам не нужно Правительство, блокирующее личную жизнь, интернет, нарушающее сохранность данных.
Все эти действия финансируются за счёт народа!