Саботаж / Sabotage / I Married a Murderer / The Woman Alone (Альфред Хичкок / Alfred Hitchcock) [1936, Великобритания, триллер, детектив, экранизация, DVB-AVC] MVO (Kino Polska)

Reply to topic
DL-List and Torrent activity
Size:  570 MB   |    Registered:  4 years   |    Completed:  0 times

Seeder not seen: Never

 
   
 
 
Author Message

star21 ®

Gender: Female

Longevity: 4 years 1 month

Posts: 551946

Location: Екатеринбург

Post 30-Nov-2015 05:49

[Quote]

Саботаж
Sabotage- Страна: Великобритания
Жанр: триллер, детектив, экранизация
Год выпуска: 1936
Продолжительность: 01:13:25Перевод: Профессиональный (многоголосый закадровый) по заказу Kino Polska на производственно-технической базе Студии "Акцент"
Cубтитры: нет
Режиссер: Альфред Хичкок / Alfred Hitchcock
В ролях: Сильвия Сидни / Sylvia Sidney (Mrs. Verloc), Оскар Хомолка / Oskar Homolka (Her Husband), Десмонд Тестер / Desmond Tester (Her Young Brother), Джон Лодер / John Loder (Ted), Альфред Хичкок / Alfred Hitchcock (Man Walking Past The Cinema as the Light is Renewed)
Описание: По мотивам романа Джозефа Конрада / Joseph Conrad "Секретный агент / The Secret Agent" (1907).
Саботажник Карл Верлок, скрываясь под маской общительного владельца кинотеатра, проводит серию диверсий в Лондоне. Почувствовав, что находится под наблюдением сыщика Теда Спенсера, он просит мальчика Стиви, младшего брата его жены, доставить на другой конец города сверток. Это бомба с часовым механизмом…
Доп. информация: Filmbox Arthouse IPTV
[imdb]http://www.imdb.com/title/tt0028212[/imdb]
Качество видео: DVB-AVC
Формат видео: MKV
Видео: AVC (H.264), 720x576@1024x576 (16:9), 25 fps, ~936 kbps avg, 0.090 bit/pixel
Аудио: MPEG Audio 2, 2 ch, 48 kHz, ~128.00 kbps avg

MediaInfo

ОбщееУникальный идентификатор                 : 214658436622772249359463128108488567153 (0xA17DB60A0A8404B9B749529312D1A971)Полное имя                               : F:\My Torrents 3\[apreder]Sabotage(1936)DVB.mkvФормат                                   : MatroskaВерсия формата                           : Version 2Размер файла                             : 570 МбайтПродолжительность                        : 1 ч. 13 м.Общий поток                              : 1086 Кбит/секДата кодирования                         : UTC 2015-08-09 10:42:23Программа кодирования                    : mkvmerge v8.2.0 ('World of Adventure') 64bitБиблиотека кодирования                   : libebml v1.3.1 + libmatroska v1.4.2Attachements                             : cover.jpg / cover_small.jpg
ВидеоИдентификатор : 2Формат : AVCФормат/Информация : Advanced Video CodecПрофиль формата : Main@L3Параметр CABAC формата : ДаПараметр ReFrames формата : 3 кадраИдентификатор кодека : V_MPEG4/ISO/AVCПродолжительность : 1 ч. 13 м.Битрейт : 936 Кбит/секШирина : 720 пикселейВысота : 576 пикселейСоотношение сторон : 16:9Соотношение сторон в оригинале : 16:9Режим частоты кадров : ПостоянныйЧастота кадров : 25,000 кадров/секСтандарт вещания : ComponentЦветовое пространство : YUVСубдискретизация насыщенности : 4:2:0Битовая глубина : 8 битТип развёртки : ПрогрессивнаяПорядок развёртки : Верхнее поле первоеБит/(Пиксели*Кадры) : 0.090Размер потока : 492 Мбайт (86%)Default : ДаForced : Нетcolour_range : LimitedОсновные цвета : BT.601 PALХарактеристики трансфера : BT.470 System B, BT.470 System GКоэффициенты матрицы : BT.601
АудиоИдентификатор : 1Формат : MPEG AudioВерсия формата : Version 1Профиль формата : Layer 2Идентификатор кодека : A_MPEG/L2Идентификатор кодека/Подсказка : MP2Продолжительность : 1 ч. 13 м.Вид битрейта : ПостоянныйБитрейт : 128 Кбит/секКаналы : 2 каналаЧастота : 48,0 КГцМетод сжатия : С потерямиЗадержка видео : -21 мс.Размер потока : 67,2 Мбайт (12%)Язык : RussianDefault : ДаForced : Нет

Скриншот c названием фильма

Скриншоты


Резервные скриншоты


-[2'538]

To download the content you need:
1. Download and install torrent client [for Windows] or for mobile system
2. Click on [Download]
Attention.
If the test YOU are NOT a ROBOT - does not work, then You are using an outdated browser.
Install the current browser and click on [Download]
Security: torrent client is allowed by Kaspersky.

[en.asmlocator.ru].t3993.torrent 
Torrent: Registered [ 2015-11-30 05:45 ] · 68C9CCD97D2C54EEE97D991CE59B648D1C3BAF78

Download .torrent

Download

12 KB

Status: checked
Completed: 0 times
Size: 570 MB
terms.php
[Profile] [PM]
Display posts:    
Reply to topic

Current time is: 10-Dec 07:08

All times are UTC ± 0



You cannot post new topics in this forum
You cannot reply to topics in this forum
You cannot edit your posts in this forum
You cannot delete your posts in this forum
You cannot vote in polls in this forum
You cannot attach files in this forum
You can download files in this forum
Верим фактам, а не вранью Путина! Факт, что Правительство ведёт Россию к истреблению.
Так как численность населения падает, даже не смотря на приток эмигрантов!
Русская нация вымирает и вырождается, смешиваясь с эмигрантами!
Факт, что военных и граждан предприятий заставляют голосовать за партию Единая Россия и Путина
ПОД СТРАХОМ УВОЛЬНЕНИЯ!
Нам не нужно Правительство, блокирующее личную жизнь, интернет, нарушающее сохранность данных.
Все эти действия финансируются за счёт народа!